<?xml version="1.0" standalone="no"?>
<!DOCTYPE svg PUBLIC "-//W3C//DTD SVG 1.1//EN" "http://www.w3.org/Graphics/SVG/1.1/DTD/svg11.dtd" >
<svg xmlns="http://www.w3.org/2000/svg" xmlns:xlink="http://www.w3.org/1999/xlink" version="1.1">
<metadata>
Created by FontForge 20170731 at Tue Apr 24 18:55:15 2012
 By Aleksey,,,
2009 Albert-Jan Pool published by FSI FontShop International GmbH
</metadata>
<defs>
<font id="Svatxepxpzpietzyzxvprfzqnyr" horiz-adv-x="533" >
  <font-face 
    font-family="Svatxepxpzpietzyzxvprfzqnyr"
    font-weight="500"
    font-stretch="normal"
    units-per-em="1000"
    panose-1="2 11 6 4 2 1 1 2 1 2"
    ascent="764"
    descent="-236"
    x-height="507"
    cap-height="712"
    bbox="-110 -211 1139 1000"
    underline-thickness="70"
    underline-position="-207"
    unicode-range="U+0020-FEFF"
  />
<missing-glyph horiz-adv-x="568" 
d="M81 712h406v-712h-406v712zM417 70v572h-266v-572h266z" />
    <glyph glyph-name="fi" unicode="fi" horiz-adv-x="586" 
d="M199 429v-429h-102v429h-58v78h58v69q0 27 8.5 52.5t25.5 45t43 31.5t62 12h64v-87h-45q-29 0 -42.5 -15.5t-13.5 -43.5v-64h101v-78h-101zM403 0v507h102v-507h-102zM400 607v108h108v-108h-108z" />
    <glyph glyph-name="fl" unicode="fl" horiz-adv-x="633" 
d="M199 429v-429h-102v429h-58v78h58v69q0 27 8.5 52.5t25.5 45t43 31.5t62 12h64v-87h-45q-29 0 -42.5 -15.5t-13.5 -43.5v-64h101v-78h-101zM539 0q-36 0 -62.5 11.5t-43.5 30.5t-25 44.5t-8 53.5v572h102v-566q0 -29 12 -44t43 -15h45v-87h-63z" />
    <glyph glyph-name=".notdef" horiz-adv-x="568" 
d="M81 712h406v-712h-406v712zM417 70v572h-266v-572h266z" />
    <glyph glyph-name=".null" horiz-adv-x="0" 
 />
    <glyph glyph-name="nonmarkingreturn" horiz-adv-x="240" 
 />
    <glyph glyph-name="space" unicode=" " horiz-adv-x="240" 
 />
    <glyph glyph-name="exclam" unicode="!" horiz-adv-x="332" 
d="M223 212h-80l-22 500h124zM127 0v109h112v-109h-112z" />
    <glyph glyph-name="quotedbl" unicode="&#x22;" horiz-adv-x="444" 
d="M265 521v191h101v-191h-101zM78 521v191h101v-191h-101z" />
    <glyph glyph-name="numbersign" unicode="#" horiz-adv-x="672" 
d="M531 426l-20 -124h79v-94h-94l-33 -208h-106l33 208h-137l-32 -208h-107l33 208h-79v94h94l20 124h-81v94h95l31 196h107l-31 -196h136l31 196h106l-31 -196h78v-94h-92zM288 426l-20 -124h137l19 124h-136z" />
    <glyph glyph-name="dollar" unicode="$" horiz-adv-x="608" 
d="M556 203q0 -45 -15.5 -81t-44 -62t-68.5 -42.5t-88 -20.5v-111h-82v108q-72 3 -126 24.5t-102 69.5l72 71q36 -36 76.5 -51t88.5 -17v222l-26 3q-43 5 -77.5 21t-56.5 36q-53 50 -53 136t53.5 142t150.5 65v90h82v-89q60 -4 105 -23t86 -57l-69 -68q-26 25 -59.5 38
t-71.5 16v-216l34 -5q50 -8 80 -20.5t53 -32.5q29 -26 43.5 -63t14.5 -83zM449 200q0 49 -28 74q-18 17 -39 22t-44 8l-7 1v-212q56 5 87 32.5t31 74.5zM267 622q-53 -5 -80.5 -35t-27.5 -74q0 -20 6.5 -36.5t20.5 -29.5q16 -14 37 -22t44 -11v208z" />
    <glyph glyph-name="percent" unicode="%" horiz-adv-x="842" 
d="M784 130q0 -32 -11 -57.5t-30 -43t-44.5 -27t-54.5 -9.5t-54.5 9.5t-44.5 27t-30 43t-11 57.5v101q0 32 11 57.5t30 43t44.5 27t54.5 9.5t54.5 -9.5t44.5 -27t30 -43t11 -57.5v-101zM338 481q0 -32 -11 -57.5t-30 -43t-44.5 -26.5t-54.5 -9t-54.5 9t-44.5 26.5t-30 43
t-11 57.5v101q0 32 11 57.5t30 43t44.5 27t54.5 9.5t54.5 -9.5t44.5 -27t30 -43t11 -57.5v-101zM294 0h-82l336 712h81zM707 228q0 34 -15.5 53t-47.5 19t-47.5 -18.5t-15.5 -53.5v-95q0 -35 15.5 -53.5t47.5 -18.5t47.5 19t15.5 53v95zM261 579q0 34 -15.5 53t-47.5 19
t-47.5 -18.5t-15.5 -53.5v-95q0 -71 63 -71q32 0 47.5 18.5t15.5 52.5v95z" />
    <glyph glyph-name="ampersand" unicode="&#x26;" horiz-adv-x="730" 
d="M553 0l-58 70q-12 -10 -29 -23t-41 -25t-55.5 -20t-71.5 -8q-112 0 -171 57.5t-59 154.5q0 37 12 66.5t32 53.5t45.5 44t51.5 37q-12 14 -25 30.5t-24 35.5t-18 40.5t-7 46.5q0 34 12.5 63t35 50t54.5 33t72 12q38 0 69 -12t53.5 -33.5t34.5 -50.5t12 -63
q0 -42 -21 -72.5t-55 -53.5l-52 -36l150 -179q20 28 28.5 61t9.5 82h98q-2 -69 -18.5 -123t-52.5 -96l119 -142h-131zM265 343q-20 -14 -37 -27.5t-30.5 -29t-21 -34.5t-7.5 -44q0 -54 36.5 -87.5t92.5 -33.5q36 0 68.5 11.5t67.5 43.5zM380 558q0 30 -19.5 50.5t-51.5 20.5
q-33 0 -51.5 -20t-18.5 -50q0 -22 14 -44t41 -54l34 23q21 14 36.5 31.5t15.5 42.5z" />
    <glyph glyph-name="quotesingle" unicode="'" horiz-adv-x="257" 
d="M78 521v191h101v-191h-101z" />
    <glyph glyph-name="parenleft" unicode="(" horiz-adv-x="317" 
d="M190 -94q-29 29 -48 49.5t-33 45.5q-16 28 -19.5 56.5t-3.5 59.5v478q0 30 4 59.5t19 56.5q7 12 14.5 22.5t17 21.5t21.5 23l28 28l70 -70l-31.5 -31.5t-24.5 -34.5q-15 -29 -15 -81v-466q0 -53 15 -81q11 -21 24.5 -34.5l31.5 -31.5z" />
    <glyph glyph-name="parenright" unicode=")" horiz-adv-x="317" 
d="M232 117q0 -31 -4 -59.5t-20 -56.5q-14 -26 -34 -47.5t-46 -47.5l-70 70q18 18 31 31.5t24 34.5q8 14 11.5 34t3.5 47v466q0 27 -3.5 47t-11.5 34q-11 21 -24 34.5t-31 31.5l70 70q28 -28 47 -49t33 -46q16 -27 20 -56.5t4 -59.5v-478z" />
    <glyph glyph-name="asterisk" unicode="*" horiz-adv-x="485" 
d="M387 401l-111 69l4 -131h-75l4 131l-111 -69l-37 65l115 61l-115 62l37 65l111 -69l-4 130h75l-4 -130l111 69l37 -65l-115 -62l115 -61z" />
    <glyph glyph-name="plus" unicode="+" 
d="M314 225v-168h-95v168h-168v95h168v167h95v-167h168v-95h-168z" />
    <glyph glyph-name="comma" unicode="," horiz-adv-x="272" 
d="M78 -155v271h116v-176z" />
    <glyph glyph-name="hyphen" unicode="-" horiz-adv-x="426" 
d="M67 230v95h292v-95h-292z" />
    <glyph glyph-name="period" unicode="." horiz-adv-x="278" 
d="M78 0v122h122v-122h-122z" />
    <glyph glyph-name="slash" unicode="/" horiz-adv-x="380" 
d="M98 -74h-98l285 860h98z" />
    <glyph glyph-name="zero" unicode="0" 
d="M472 198q0 -48 -16 -85.5t-44 -64t-65.5 -40.5t-80.5 -14q-42 0 -79.5 14t-65.5 40.5t-44 64t-16 85.5v316q0 48 16 85.5t44 64t65.5 40.5t79.5 14q43 0 80.5 -14t65.5 -40.5t44 -64t16 -85.5v-316zM370 511q0 51 -27.5 83.5t-76.5 32.5q-48 0 -75.5 -32.5t-27.5 -83.5
v-310q0 -51 27.5 -83.5t75.5 -32.5q49 0 76.5 32.5t27.5 83.5v310z" />
    <glyph glyph-name="one" unicode="1" 
d="M253 0v601l-139 -122v113l139 120h102v-712h-102z" />
    <glyph glyph-name="two" unicode="2" 
d="M63 0v91l274 333q20 25 29 46.5t9 48.5q0 48 -27 78t-77 30q-20 0 -39 -6t-33.5 -19t-23.5 -34t-9 -51h-102q0 45 15.5 82.5t43 63.5t65.5 40.5t83 14.5q46 0 84 -14t65 -40t42 -63t15 -83q0 -47 -17 -80.5t-50 -73.5l-223 -273h290v-91h-414z" />
    <glyph glyph-name="three" unicode="3" 
d="M478 200q0 -51 -17.5 -90t-47 -65t-69 -39t-84.5 -13q-43 0 -81.5 11.5t-68.5 36t-48.5 62.5t-19.5 90h102q1 -29 11.5 -49t26 -33.5t36 -19.5t42.5 -6q50 0 83 30.5t33 87.5q0 54 -29.5 85.5t-89.5 31.5h-17v89h17q56 0 82 29.5t26 78.5q0 54 -30.5 82t-74.5 28
q-47 0 -75 -27t-32 -75h-102q2 45 19 81t45 61t65 38.5t80 13.5q45 0 83 -14.5t65.5 -41t43 -63t15.5 -80.5q0 -57 -23.5 -94.5t-65.5 -57.5q46 -20 73 -61t27 -107z" />
    <glyph glyph-name="four" unicode="4" 
d="M422 107v-107h-99v107h-288v95l251 510h110l-250 -510h177v166h99v-166h76v-95h-76z" />
    <glyph glyph-name="five" unicode="5" 
d="M479 238q0 -57 -10.5 -103.5t-49.5 -85.5q-24 -24 -61 -40t-89 -16q-51 0 -90 16t-62 39q-29 29 -40 63.5t-14 72.5h102q6 -48 31 -73.5t73 -25.5q46 0 74 28q23 23 28.5 56t5.5 69q0 32 -4.5 59t-16.5 47t-32 31.5t-51 11.5q-44 0 -68.5 -19t-32.5 -45h-93v389h384v-91
h-292v-188q18 19 48.5 30t69.5 11q42 0 74 -12t54 -34q20 -20 32.5 -43t19 -47t8.5 -49.5t2 -50.5z" />
    <glyph glyph-name="six" unicode="6" 
d="M477 211q0 -49 -15.5 -89t-43.5 -68.5t-66.5 -44t-84.5 -15.5t-85 14.5t-67 42.5t-43.5 67t-15.5 89q0 44 15 86t38 89l162 330h109l-153 -306q14 6 30 8.5t33 2.5q39 0 73 -14.5t59.5 -41.5t40 -65t14.5 -85zM375 209q0 53 -29 88t-80 35q-48 0 -78 -32.5t-30 -90.5
q0 -57 30 -90.5t78 -33.5t78.5 33.5t30.5 90.5z" />
    <glyph glyph-name="seven" unicode="7" 
d="M249 0h-110l239 621h-217v-112h-98v203h424v-91z" />
    <glyph glyph-name="eight" unicode="8" 
d="M486 201q0 -48 -17 -86.5t-47 -65.5t-70 -41t-86 -14t-86 14t-69.5 41t-46.5 65.5t-17 86.5q0 32 8.5 58t22 46.5t31 36t36.5 26.5q-35 21 -60.5 58.5t-25.5 94.5q0 45 16 81t44 62t65.5 40t81.5 14q43 0 81 -14t66.5 -40t44.5 -62t16 -81q0 -57 -25.5 -94.5t-60.5 -58.5
q19 -11 36.5 -26.5t31 -36t22 -46.5t8.5 -58zM383 203q0 25 -9 46.5t-25 37.5t-37 25.5t-46 9.5t-46.5 -9.5t-37 -25.5t-24.5 -37.5t-9 -46.5t9 -46.5t24.5 -37.5t37 -25t46.5 -9t46 9t37 25t25 37.5t9 46.5zM372 518q0 47 -29.5 78t-76.5 31t-76 -31t-29 -78q0 -48 29 -78
t76 -30t76.5 30t29.5 78z" />
    <glyph glyph-name="nine" unicode="9" 
d="M477 505q0 -44 -15 -86t-38 -89l-162 -330h-109l153 306q-14 -6 -30.5 -8.5t-33.5 -2.5q-39 0 -72.5 14.5t-59 41.5t-40 65t-14.5 85q0 49 15.5 89t43.5 68.5t66.5 44t84.5 15.5t85 -14.5t67 -42.5t43.5 -67.5t15.5 -88.5zM375 503q0 57 -30.5 90.5t-78.5 33.5t-78 -33.5
t-30 -90.5q0 -53 28.5 -88t79.5 -35q48 0 78.5 32.5t30.5 90.5z" />
    <glyph glyph-name="colon" unicode=":" horiz-adv-x="303" 
d="M104 285v122h121v-122h-121zM104 0v122h121v-122h-121z" />
    <glyph glyph-name="semicolon" unicode=";" horiz-adv-x="303" 
d="M106 -155v271h116v-176zM104 285v122h121v-122h-121z" />
    <glyph glyph-name="less" unicode="&#x3c;" 
d="M82 232v91l369 177v-108l-245 -115l245 -114v-108z" />
    <glyph glyph-name="equal" unicode="=" 
d="M51 327v95h431v-95h-431zM51 133v95h431v-95h-431z" />
    <glyph glyph-name="greater" unicode="&#x3e;" 
d="M82 55v108l245 114l-245 115v108l369 -177v-91z" />
    <glyph glyph-name="question" unicode="?" horiz-adv-x="511" 
d="M470 527q0 -36 -14 -65.5t-34 -57.5l-77 -108q-8 -11 -13 -26.5t-5 -27.5v-30h-102v35q0 31 8 53t26 46l78 105q14 18 22.5 36.5t8.5 39.5q0 42 -27 71t-71 29q-47 0 -72 -30t-25 -71h-102q0 42 15 77.5t42 61t63.5 39.5t78.5 14q41 0 77.5 -13.5t63.5 -38t43 -60
t16 -79.5zM219 0v109h113v-109h-113z" />
    <glyph glyph-name="at" unicode="@" horiz-adv-x="736" 
d="M576 0v50q-24 -29 -53.5 -43t-73.5 -14q-41 0 -74.5 15t-56.5 41q-14 16 -23 34.5t-14 40.5t-6.5 49t-1.5 61q0 66 8 109t35 75q22 26 56 41.5t76 15.5t72 -14t54 -42v61q0 35 -8 60.5t-29 47.5q-20 20 -47 28.5t-59 8.5h-126q-32 0 -58 -8t-47 -29q-23 -23 -30 -47.5
t-7 -60.5v-312q0 -21 2.5 -36.5t8 -28t15 -23t24.5 -22.5l-70 -70q-22 18 -37 35t-24.5 37t-13.5 45t-4 58v318q0 57 13.5 100t45.5 75t74.5 45.5t97.5 13.5h146q54 0 96.5 -13.5t74.5 -45.5t46 -75t14 -100v-481h-96zM574 234q0 32 -4 60.5t-15.5 49.5t-31.5 33t-51 12
q-32 0 -51.5 -12t-30.5 -33t-15 -49.5t-4 -60.5t4 -60t15 -49t30.5 -33t51.5 -12q31 0 51 12t31.5 33t15.5 49t4 60z" />
    <glyph glyph-name="A" unicode="A" horiz-adv-x="625" 
d="M502 0l-49 143h-281l-49 -143h-115l261 712h87l261 -712h-115zM315 551l-111 -316h219z" />
    <glyph glyph-name="B" unicode="B" horiz-adv-x="663" 
d="M596 201q0 -49 -16 -86.5t-44.5 -63t-68 -38.5t-86.5 -13h-288v712h277q100 0 157.5 -52t57.5 -143q0 -29 -8.5 -53.5t-22 -44t-30.5 -33t-35 -20.5q21 -8 40 -22.5t34 -34.5t24 -47t9 -61zM488 206q0 48 -30 78t-87 30h-170v-217h170q57 0 87 30.5t30 78.5zM477 513
q0 50 -32 76t-84 26h-160v-204h160q52 0 84 26t32 76z" />
    <glyph glyph-name="C" unicode="C" horiz-adv-x="628" 
d="M577 213q-19 -106 -87.5 -162.5t-166.5 -56.5q-59 0 -104 18.5t-80 53.5q-26 26 -40.5 54t-21.5 61.5t-8.5 76t-1.5 98.5t1.5 98.5t8.5 76t21.5 61.5t40.5 54q35 35 80 53.5t104 18.5q99 0 167 -56.5t87 -162.5h-110q-12 55 -48 89t-96 34q-64 0 -105 -44
q-14 -14 -22 -31t-13 -41.5t-6.5 -60.5t-1.5 -89t1.5 -89t6.5 -60.5t13 -41.5t22 -31q41 -44 105 -44q60 0 96.5 34t49.5 89h108z" />
    <glyph glyph-name="D" unicode="D" horiz-adv-x="666" 
d="M599 356q0 -43 -1 -81t-6.5 -71t-16.5 -61.5t-30 -52.5q-38 -47 -86.5 -68.5t-115.5 -21.5h-250v712h250q67 0 115.5 -21.5t86.5 -68.5q19 -24 30 -52.5t16.5 -61.5t6.5 -71t1 -81zM491 356q0 80 -6 131t-32 80q-23 26 -53.5 37.5t-68.5 11.5h-130v-520h130
q38 0 68.5 11.5t53.5 37.5q26 29 32 80t6 131z" />
    <glyph glyph-name="E" unicode="E" horiz-adv-x="603" 
d="M93 0v712h455v-97h-347v-208h296v-96h-296v-214h347v-97h-455z" />
    <glyph glyph-name="F" unicode="F" horiz-adv-x="585" 
d="M201 615v-217h296v-97h-296v-301h-108v712h455v-97h-347z" />
    <glyph glyph-name="G" unicode="G" horiz-adv-x="649" 
d="M583 276q0 -70 -14.5 -116.5t-49.5 -84.5q-40 -42 -89.5 -61.5t-106.5 -19.5q-59 0 -104 18.5t-80 53.5q-26 26 -40.5 54t-21.5 61.5t-8.5 76t-1.5 98.5t1.5 98.5t8.5 76t21.5 61.5t40.5 54q35 35 80 53.5t104 18.5q56 0 101 -17.5t77.5 -47.5t52.5 -70t27 -85h-108
q-14 59 -52 91.5t-98 32.5q-64 0 -106 -44q-13 -14 -21.5 -31t-13 -41.5t-6 -60.5t-1.5 -89t1.5 -89t6 -60.5t13 -41.5t21.5 -31q42 -44 106 -44q35 0 65.5 13t51.5 38q20 23 27.5 50t7.5 62v40h-152v92h260v-109z" />
    <glyph glyph-name="H" unicode="H" horiz-adv-x="691" 
d="M490 0v311h-289v-311h-108v712h108v-304h289v304h108v-712h-108z" />
    <glyph glyph-name="I" unicode="I" horiz-adv-x="294" 
d="M93 0v712h108v-712h-108z" />
    <glyph glyph-name="J" unicode="J" horiz-adv-x="506" 
d="M423 225q0 -56 -18.5 -99t-51 -72t-75.5 -44.5t-92 -15.5q-55 0 -95.5 16t-77.5 53l72 71q19 -19 40.5 -31t60.5 -12q60 0 94.5 36t34.5 106v479h108v-487z" />
    <glyph glyph-name="K" unicode="K" horiz-adv-x="658" 
d="M521 0l-200 351l-120 -144v-207h-108v712h108v-358l291 358h132l-231 -279l255 -433h-127z" />
    <glyph glyph-name="L" unicode="L" horiz-adv-x="574" 
d="M93 0v712h108v-615h343v-97h-451z" />
    <glyph glyph-name="M" unicode="M" horiz-adv-x="813" 
d="M613 0v476l-164 -347h-80l-168 347v-476h-108v712h108l208 -443l204 443h108v-712h-108z" />
    <glyph glyph-name="N" unicode="N" horiz-adv-x="722" 
d="M530 0l-329 501v-501h-108v712h99l329 -500v500h108v-712h-99z" />
    <glyph glyph-name="O" unicode="O" horiz-adv-x="646" 
d="M579 356q0 -56 -1.5 -98.5t-8.5 -76t-21.5 -61.5t-40.5 -54q-35 -35 -80 -53.5t-104 -18.5t-104 18.5t-80 53.5q-26 26 -40.5 54t-21.5 61.5t-8.5 76t-1.5 98.5t1.5 98.5t8.5 76t21.5 61.5t40.5 54q35 35 80 53.5t104 18.5t104 -18.5t80 -53.5q26 -26 40.5 -54
t21.5 -61.5t8.5 -76t1.5 -98.5zM471 356q0 53 -1.5 89t-6 61t-13 41.5t-21.5 30.5q-42 44 -106 44t-106 -44q-13 -14 -21.5 -31t-13 -41.5t-6 -60.5t-1.5 -89t1.5 -88.5t6 -60.5t13 -41.5t21.5 -30.5q20 -21 47 -33t59 -12t59 12t47 33q13 14 21.5 30.5t13 41t6 60.5t1.5 89
z" />
    <glyph glyph-name="P" unicode="P" horiz-adv-x="629" 
d="M591 496q0 -47 -16 -86t-46 -68t-72 -45t-94 -16h-162v-281h-108v712h270q52 0 94 -16.5t72 -45t46 -68.5t16 -86zM483 496q0 57 -34.5 88t-91.5 31h-156v-238h156q57 0 91.5 31t34.5 88z" />
    <glyph glyph-name="Q" unicode="Q" horiz-adv-x="646" 
d="M579 356q0 -48 -1 -86t-5.5 -69t-14 -56.5t-25.5 -48.5l70 -69l-60 -59l-71 70q-29 -21 -66.5 -32.5t-82.5 -11.5q-59 0 -104 18.5t-80 53.5q-26 26 -40.5 54t-21.5 61.5t-8.5 76t-1.5 98.5t1.5 98.5t8.5 76t21.5 61.5t40.5 54q35 35 80 53.5t104 18.5t104 -18.5
t80 -53.5q26 -26 40.5 -54t21.5 -61.5t8.5 -76t1.5 -98.5zM471 356q0 53 -1.5 89t-6 60.5t-13 41.5t-21.5 31q-42 44 -106 44t-106 -44q-14 -14 -22 -31t-12.5 -41.5t-6 -60.5t-1.5 -89t1.5 -88.5t6 -60.5t12.5 -41.5t22 -30.5q20 -21 47 -33t59 -12q43 0 74 24l-76 75
l60 60l69 -70q14 28 17.5 68t3.5 109z" />
    <glyph glyph-name="R" unicode="R" horiz-adv-x="655" 
d="M486 0l-150 300h-135v-300h-108v712h276q51 0 91.5 -15.5t69.5 -43t44.5 -66t15.5 -83.5q0 -77 -41 -124.5t-101 -64.5l164 -315h-126zM482 503q0 53 -33.5 82.5t-87.5 29.5h-160v-223h160q54 0 87.5 29t33.5 82z" />
    <glyph glyph-name="S" unicode="S" horiz-adv-x="590" 
d="M538 203q0 -49 -19 -88t-53 -66t-81 -41t-103 -14q-81 0 -140.5 21t-111.5 73l71 71q39 -39 84 -54t99 -15q71 0 109 28.5t38 81.5q0 50 -28 74q-26 23 -78 30l-84 12q-89 14 -134 57q-53 48 -53 137q0 46 16.5 84.5t47 66t74.5 42.5t100 15q72 0 123.5 -19t97.5 -62
l-68 -68q-33 32 -72 43.5t-85 11.5q-63 0 -96 -31t-33 -80q0 -20 6 -37t20 -29t31.5 -19.5t46.5 -12.5l85 -13q49 -8 79 -20t53 -33q58 -53 58 -146z" />
    <glyph glyph-name="T" unicode="T" horiz-adv-x="560" 
d="M334 615v-615h-108v615h-196v97h500v-97h-196z" />
    <glyph glyph-name="U" unicode="U" horiz-adv-x="675" 
d="M593 240q0 -55 -19.5 -100.5t-54 -77.5t-81.5 -50t-101 -18t-101 18t-81 50t-53.5 77.5t-19.5 100.5v472h108v-467q0 -72 40 -113t107 -41t107.5 41t40.5 113v467h108v-472z" />
    <glyph glyph-name="V" unicode="V" horiz-adv-x="564" 
d="M323 0h-84l-234 712h112l164 -518l164 518h114z" />
    <glyph glyph-name="W" unicode="W" horiz-adv-x="871" 
d="M674 0h-94l-145 499l-144 -499h-94l-186 712h114l124 -509l143 509h87l143 -509l124 509h114z" />
    <glyph glyph-name="X" unicode="X" horiz-adv-x="578" 
d="M443 0l-155 273l-154 -273h-124l220 365l-206 347h124l140 -255l141 255h124l-206 -347l221 -365h-125z" />
    <glyph glyph-name="Y" unicode="Y" horiz-adv-x="544" 
d="M326 293v-293h-108v293l-213 419h118l149 -313l149 313h118z" />
    <glyph glyph-name="Z" unicode="Z" horiz-adv-x="552" 
d="M48 0v93l329 522h-315v97h442v-88l-331 -527h331v-97h-456z" />
    <glyph glyph-name="bracketleft" unicode="[" horiz-adv-x="347" 
d="M86 -74v860h218v-91h-116v-678h116v-91h-218z" />
    <glyph glyph-name="backslash" unicode="\" horiz-adv-x="380" 
d="M282 -74l-282 852h98l282 -852h-98z" />
    <glyph glyph-name="bracketright" unicode="]" horiz-adv-x="347" 
d="M43 -74v90h118v680h-118v90h218v-860h-218z" />
    <glyph glyph-name="asciicircum" unicode="^" horiz-adv-x="571" 
d="M397 401l-112 207l-112 -207h-106l172 318h93l171 -318h-106z" />
    <glyph glyph-name="underscore" unicode="_" horiz-adv-x="571" 
d="M0 -172v70h571v-70h-571z" />
    <glyph glyph-name="grave" unicode="`" horiz-adv-x="500" 
d="M225 599l-111 162h113l75 -162h-77z" />
    <glyph glyph-name="a" unicode="a" horiz-adv-x="530" 
d="M354 0v46q-28 -28 -58 -40t-77 -12q-48 0 -80.5 11.5t-55.5 34.5q-40 42 -40 109q0 64 44 105t132 41h133v36q0 49 -25.5 72t-85.5 23q-41 0 -65 -11.5t-46 -38.5l-66 63q18 21 36.5 35t40 23t47 12.5t57.5 3.5q106 0 157.5 -44t51.5 -130v-339h-100zM352 224h-117
q-93 0 -93 -73q0 -35 22.5 -53.5t73.5 -18.5q27 0 49.5 5t42.5 24q22 21 22 75v41z" />
    <glyph glyph-name="b" unicode="b" horiz-adv-x="553" 
d="M496 254q0 -63 -10 -120t-47 -95q-21 -21 -53.5 -33t-70.5 -12q-41 0 -73 12.5t-61 47.5v-54h-100v712h102v-256q28 33 60 45t73 12q38 0 70 -12t53 -33q18 -19 29.5 -43t17.5 -51.5t8 -58t2 -61.5zM394 254q0 34 -3.5 64.5t-14.5 53.5t-32 36.5t-55 13.5
q-35 0 -56 -13.5t-32 -36.5t-14.5 -53.5t-3.5 -64.5t3.5 -64.5t14.5 -54t32 -37t56 -13.5q34 0 55 13.5t32 37t14.5 54t3.5 64.5z" />
    <glyph glyph-name="c" unicode="c" horiz-adv-x="485" 
d="M448 66q-36 -38 -75 -55t-92 -17q-43 0 -83.5 14t-72 45t-51 80.5t-19.5 120.5t19.5 120.5t51 80t72 44.5t83.5 14q53 0 92 -16.5t75 -54.5l-70 -68q-24 26 -45.5 37t-51.5 11q-60 0 -94 -45q-17 -21 -23.5 -49.5t-6.5 -73.5t6.5 -74t23.5 -50q34 -45 94 -45
q30 0 51.5 11t45.5 37z" />
    <glyph glyph-name="d" unicode="d" horiz-adv-x="553" 
d="M372 0v54q-29 -35 -60.5 -47.5t-73.5 -12.5q-38 0 -70.5 12t-53.5 33q-37 38 -47 95t-10 120q0 31 2 61.5t8 58t17.5 51.5t29.5 43q21 21 53 33t70 12q41 0 73 -12t60 -45v256h102v-712h-100zM370 254q0 34 -3.5 64.5t-14.5 53.5t-32 36.5t-55 13.5q-35 0 -56 -13.5
t-32 -36.5t-14.5 -53.5t-3.5 -64.5t3.5 -64.5t14.5 -54t32 -37t56 -13.5q34 0 55 13.5t32 37t14.5 54t3.5 64.5z" />
    <glyph glyph-name="e" unicode="e" horiz-adv-x="539" 
d="M156 224q0 -66 33 -104t96 -38q43 0 69.5 12.5t53.5 39.5l65 -61q-20 -20 -39.5 -34.5t-42 -24.5t-49 -15t-59.5 -5q-48 0 -89.5 13.5t-72 44t-48.5 80.5t-18 122q0 125 58.5 192t156.5 67q51 0 91 -17.5t67.5 -50t42 -78t14.5 -100.5v-43h-329zM384 295q-2 23 -4 37.5
t-10 31.5q-13 29 -38.5 46.5t-61.5 17.5q-37 0 -62.5 -17.5t-38.5 -46.5q-8 -17 -10 -31.5t-3 -37.5h228z" />
    <glyph glyph-name="f" unicode="f" horiz-adv-x="328" 
d="M199 429v-429h-102v429h-58v78h58v69q0 27 8.5 52.5t25.5 45t43 31.5t62 12h64v-87h-45q-29 0 -42.5 -15.5t-13.5 -43.5v-64h101v-78h-101z" />
    <glyph glyph-name="g" unicode="g" horiz-adv-x="549" 
d="M468 3q0 -47 -15 -86t-43 -67.5t-68 -44.5t-91 -16q-58 0 -98.5 15t-80.5 52l65 65q24 -23 48 -34t62 -11q32 0 54.5 10.5t37 28.5t21 41t6.5 49v65q-28 -33 -60 -45.5t-71 -12.5q-38 0 -69 12t-52 33q-37 37 -47 89t-10 117t10 117t47 89q44 44 122 44q41 0 72.5 -12.5
t60.5 -47.5v54h99v-504zM366 263q0 30 -3 58.5t-14 51t-31.5 36t-54.5 13.5q-35 0 -55.5 -13.5t-31 -36t-14 -51t-3.5 -58.5t3.5 -58.5t14 -51t31 -36t55.5 -13.5q34 0 54.5 13.5t31.5 36t14 51t3 58.5z" />
    <glyph glyph-name="h" unicode="h" horiz-adv-x="568" 
d="M390 0v309q0 59 -29.5 86t-72.5 27t-74 -27.5t-31 -85.5v-309h-102v712h102v-256q26 29 60 43t73 14t70.5 -12t54.5 -34q29 -29 40 -64.5t11 -78.5v-324h-102z" />
    <glyph glyph-name="i" unicode="i" horiz-adv-x="264" 
d="M81 0v507h102v-507h-102zM78 607v108h108v-108h-108z" />
    <glyph glyph-name="j" unicode="j" horiz-adv-x="264" 
d="M183 -67q0 -28 -8 -53.5t-25 -44.5t-43.5 -30.5t-62.5 -11.5h-63v87h45q31 0 43 15t12 44v568h102v-574zM78 607v108h108v-108h-108z" />
    <glyph glyph-name="k" unicode="k" horiz-adv-x="548" 
d="M400 0l-142 234l-75 -85v-149h-102v712h102v-439l197 234h124l-176 -199l198 -308h-126z" />
    <glyph glyph-name="l" unicode="l" horiz-adv-x="311" 
d="M217 0q-36 0 -62.5 11.5t-43.5 30.5t-25 44.5t-8 53.5v572h102v-566q0 -29 12 -44t43 -15h45v-87h-63z" />
    <glyph glyph-name="m" unicode="m" horiz-adv-x="877" 
d="M699 0v309q0 59 -29.5 86t-72.5 27q-21 0 -40 -6.5t-33.5 -20t-23 -34t-8.5 -47.5v-314h-102v309q0 59 -29.5 86t-72.5 27t-74 -27.5t-31 -85.5v-309h-102v507h100v-51q26 28 61.5 42.5t73.5 14.5q96 0 144 -74q61 74 159 74q39 0 72 -12t56 -34q29 -29 41.5 -64.5
t12.5 -78.5v-324h-102z" />
    <glyph glyph-name="n" unicode="n" horiz-adv-x="568" 
d="M390 0v309q0 59 -29.5 86t-72.5 27t-74 -27.5t-31 -85.5v-309h-102v507h100v-51q26 29 61.5 43t73.5 14q39 0 70.5 -12t54.5 -34q29 -29 40 -64.5t11 -78.5v-324h-102z" />
    <glyph glyph-name="o" unicode="o" horiz-adv-x="537" 
d="M480 254q0 -65 -12 -113.5t-48 -86.5q-25 -26 -62.5 -43t-89.5 -17t-89 17t-62 43q-36 38 -48 86.5t-12 113.5q0 64 12 112.5t48 86.5q25 26 62 43t89 17t89.5 -17t62.5 -43q36 -38 48 -86.5t12 -112.5zM378 254q0 42 -6 79t-29 60q-29 29 -75 29q-45 0 -74 -29
q-23 -23 -29 -60t-6 -79t6 -79t29 -60q30 -30 74 -30q45 0 75 30q23 23 29 60t6 79z" />
    <glyph glyph-name="p" unicode="p" horiz-adv-x="553" 
d="M496 254q0 -31 -2 -61.5t-8 -58.5t-17.5 -52t-29.5 -43q-21 -21 -52.5 -33t-70.5 -12q-41 0 -73 12t-60 46v-257h-102v712h100v-54q29 35 61 47.5t73 12.5q39 0 71 -12t53 -33q18 -19 29.5 -43t17.5 -51.5t8 -58t2 -61.5zM394 254q0 34 -3.5 64.5t-14.5 53.5t-32 36.5
t-55 13.5q-35 0 -56 -13.5t-32 -36.5t-14.5 -53.5t-3.5 -64.5t3.5 -64.5t14.5 -54t32 -37t56 -13.5q34 0 55 13.5t32 37t14.5 54t3.5 64.5z" />
    <glyph glyph-name="q" unicode="q" horiz-adv-x="553" 
d="M57 254q0 31 2 61.5t8 58t17.5 51.5t29.5 43q21 21 53 33t71 12q41 0 73 -12.5t61 -47.5v54h100v-712h-102v257q-28 -34 -60 -46t-73 -12q-39 0 -70.5 12t-52.5 33q-18 19 -29.5 43t-17.5 52t-8 58.5t-2 61.5zM159 254q0 -34 3.5 -64.5t14.5 -54t31.5 -37t55.5 -13.5
t56 13.5t32 37t14.5 54t3.5 64.5t-3.5 64.5t-14.5 53.5t-32 36.5t-56 13.5t-55.5 -13.5t-31.5 -36.5t-14.5 -53.5t-3.5 -64.5z" />
    <glyph glyph-name="r" unicode="r" horiz-adv-x="439" 
d="M360 388q-17 17 -33.5 25.5t-42.5 8.5q-42 0 -71.5 -30.5t-29.5 -83.5v-308h-102v507h100v-55q20 27 56 44t79 17q37 0 66 -11t55 -37z" />
    <glyph glyph-name="s" unicode="s" horiz-adv-x="499" 
d="M456 155q0 -40 -16 -70t-44 -50.5t-67 -30.5t-84 -10q-62 0 -115 14.5t-98 58.5l67 67q31 -32 69.5 -42.5t76.5 -10.5q48 0 79.5 17t31.5 53q0 26 -15.5 41t-52.5 19l-81 7q-72 7 -111 40t-39 100q0 37 15 66t41 49t60.5 30t74.5 10q58 0 105.5 -13t82.5 -44l-64 -65
q-24 20 -56.5 28.5t-68.5 8.5q-47 0 -69.5 -18t-22.5 -47q0 -26 16 -40t54 -18l71 -6q79 -7 119.5 -42t40.5 -102z" />
    <glyph glyph-name="t" unicode="t" horiz-adv-x="342" 
d="M232 0q-36 0 -62 12t-43 31.5t-25.5 45t-8.5 52.5v288h-58v78h58v145h102v-145h98v-78h-98v-283q0 -28 13.5 -43.5t42.5 -15.5h42v-87h-61z" />
    <glyph glyph-name="u" unicode="u" horiz-adv-x="568" 
d="M387 0v51q-26 -29 -61.5 -43t-73.5 -14q-39 0 -70.5 12t-54.5 34q-29 29 -40 64.5t-11 78.5v324h102v-309q0 -59 29.5 -86t72.5 -27q21 0 40.5 6.5t33.5 20.5t22.5 35.5t8.5 50.5v309h102v-507h-100z" />
    <glyph glyph-name="v" unicode="v" horiz-adv-x="471" 
d="M277 0h-83l-186 507h108l120 -357l119 357h108z" />
    <glyph glyph-name="w" unicode="w" horiz-adv-x="743" 
d="M577 0h-87l-119 354l-118 -354h-88l-157 507h108l98 -357l118 357h79l117 -357l98 357h109z" />
    <glyph glyph-name="x" unicode="x" horiz-adv-x="503" 
d="M358 0l-106 173l-107 -173h-123l174 259l-167 248h123l100 -165l99 165h123l-166 -248l173 -259h-123z" />
    <glyph glyph-name="y" unicode="y" horiz-adv-x="468" 
d="M240 -101q-14 -40 -37 -63q-21 -21 -48 -29t-56 -8h-41v92h26q32 0 47 11.5t26 42.5l28 79l-177 483h108l121 -357l118 357h109z" />
    <glyph glyph-name="z" unicode="z" horiz-adv-x="469" 
d="M43 0v81l252 335h-238v91h364v-81l-254 -335h254v-91h-378z" />
    <glyph glyph-name="braceleft" unicode="{" horiz-adv-x="407" 
d="M291 -74q-38 0 -64 8.5t-43 25.5q-20 20 -28 44.5t-8 60.5v167q0 42 -18 60q-8 8 -19.5 13.5t-28.5 5.5h-37v90h37q17 0 28.5 5.5t19.5 13.5q18 18 18 60v167q0 36 8 60.5t28 44.5q17 17 43 25.5t64 8.5h71v-91h-39q-24 0 -37 -3t-21 -11t-11.5 -23t-3.5 -41v-161
q0 -24 -6 -41t-15 -28t-21 -18.5t-24 -12.5q12 -5 24 -12.5t21 -18.5t15 -28t6 -41v-161q0 -26 3.5 -41t11.5 -23t21 -11t37 -3h39v-91h-71z" />
    <glyph glyph-name="bar" unicode="|" horiz-adv-x="338" 
d="M118 -74v860h102v-860h-102z" />
    <glyph glyph-name="braceright" unicode="}" horiz-adv-x="407" 
d="M326 311q-17 0 -29 -5.5t-20 -13.5q-18 -18 -18 -60v-167q0 -36 -8 -60.5t-28 -44.5q-17 -17 -43 -25.5t-64 -8.5h-71v91h39q24 0 37 3t21 11t11.5 23t3.5 41v161q0 24 6 41t15.5 28t21.5 18.5t24 12.5q-12 5 -24 12.5t-21.5 18.5t-15.5 28t-6 41v161q0 26 -3.5 41
t-11.5 23t-21 11t-37 3h-39v91h71q38 0 64 -8.5t43 -25.5q20 -20 28 -44.5t8 -60.5v-167q0 -42 18 -60q8 -8 20 -13.5t29 -5.5h36v-90h-36z" />
    <glyph glyph-name="asciitilde" unicode="~" horiz-adv-x="574" 
d="M531 280q-22 -22 -40.5 -37t-36 -24t-34.5 -13t-37 -4q-29 0 -55 9t-57 24q-21 11 -39.5 17.5t-39.5 6.5t-39 -8t-46 -36l-64 64q22 22 40.5 37t35.5 24t34 13t37 4q29 0 54.5 -9t56.5 -24q21 -11 40 -17.5t40 -6.5q10 0 19.5 1.5t19 6t21 13.5t25.5 23z" />
    <glyph glyph-name="uni00A0" unicode="&#xa0;" horiz-adv-x="240" 
 />
    <glyph glyph-name="exclamdown" unicode="&#xa1;" horiz-adv-x="332" 
d="M87 -205l22 500h80l22 -500h-124zM93 398v109h112v-109h-112z" />
    <glyph glyph-name="cent" unicode="&#xa2;" horiz-adv-x="498" 
d="M459 184q-32 -34 -65 -51.5t-76 -22.5v-110h-80v111q-40 7 -73.5 26.5t-58 52t-38 76.5t-13.5 100t13.5 100t38 76.5t58 52t73.5 26.5v91h80v-90q43 -5 76 -22.5t65 -51.5l-68 -66q-20 22 -38.5 33t-43.5 15v-328q25 4 43.5 15t38.5 33zM247 528q-34 -7 -58 -39
q-16 -22 -24 -50t-8 -73q0 -44 7.5 -72.5t23.5 -50.5q24 -32 59 -39v324z" />
    <glyph glyph-name="sterling" unicode="&#xa3;" horiz-adv-x="564" 
d="M105 0v313h-62v78h62v96q0 55 19 98.5t51 72.5t75.5 44.5t92.5 15.5q55 0 95.5 -16t77.5 -53l-72 -71q-19 19 -40.5 31t-60.5 12q-60 0 -94.5 -36t-34.5 -106v-88h129v-78h-129v-216h302v-97h-411z" />
    <glyph glyph-name="currency" unicode="&#xa4;" horiz-adv-x="665" 
d="M530 14l-74 74q-26 -18 -57.5 -28t-66.5 -10t-66.5 10t-57.5 28l-73 -74l-67 67l73 74q-18 26 -28 57.5t-10 66.5t10 66.5t28 57.5l-73 73l67 67l73 -73q54 37 124 37t124 -37l74 73l67 -67l-74 -73q18 -26 28 -57.5t10 -66.5t-10 -66.5t-28 -57.5l74 -74zM468 279
q0 28 -10.5 52.5t-29 43t-43.5 29t-53 10.5t-53 -10.5t-43.5 -29t-29 -43t-10.5 -52.5t10.5 -53t29 -43.5t43.5 -29t53 -10.5t53 10.5t43.5 29t29 43.5t10.5 53z" />
    <glyph glyph-name="yen" unicode="&#xa5;" horiz-adv-x="544" 
d="M392 422h87v-78h-127l-26 -51v-52h153v-78h-153v-163h-108v163h-153v78h153v52l-26 51h-127v78h87l-147 290h118l150 -314l148 314h117z" />
    <glyph glyph-name="brokenbar" unicode="&#xa6;" horiz-adv-x="344" 
d="M118 436v350h102v-350h-102zM118 -74v350h102v-350h-102z" />
    <glyph glyph-name="section" unicode="&#xa7;" horiz-adv-x="543" 
d="M472 264q0 -29 -9 -54t-23 -44.5t-31 -34t-34 -23.5q38 -17 63 -50.5t25 -90.5q0 -43 -15.5 -76t-42 -55.5t-61 -34.5t-72.5 -12q-37 0 -71 10t-61 31t-44 53t-18 76h100q3 -37 27.5 -58t66.5 -21q43 0 67 22.5t24 61.5q0 27 -18 51t-60 37l-70 21q-69 21 -105 66
t-36 120q0 29 8.5 54t22.5 44.5t31.5 34t34.5 23.5q-37 18 -60.5 48.5t-23.5 85.5q0 35 12.5 65.5t36.5 53.5t58.5 36.5t78.5 13.5t78.5 -12.5t58.5 -34t37 -52t14 -66.5h-98q-3 41 -27.5 58.5t-62.5 17.5q-42 0 -65 -20t-23 -57q0 -31 20 -50.5t55 -30.5l70 -21
q69 -21 105.5 -66.5t36.5 -119.5zM372 261q0 52 -29 80q-14 13 -30.5 20.5t-39.5 7.5q-45 0 -71 -28q-14 -14 -21 -32.5t-7 -47.5t8 -47.5t20 -31.5q26 -28 71 -28q44 0 70 28q12 13 20.5 31t8.5 48z" />
    <glyph glyph-name="dieresis" unicode="&#xa8;" horiz-adv-x="500" 
d="M312 604v108h92v-108h-92zM96 604v108h92v-108h-92z" />
    <glyph glyph-name="copyright" unicode="&#xa9;" horiz-adv-x="862" 
d="M793 356q0 -75 -28.5 -141t-77.5 -115t-115 -77.5t-141 -28.5t-141 28.5t-115 77.5t-77.5 115t-28.5 141t28.5 141t77.5 115t115 77.5t141 28.5t141 -28.5t115 -77.5t77.5 -115t28.5 -141zM720 356q0 62 -22.5 115.5t-61.5 93.5t-92 62.5t-113 22.5t-113 -22.5t-92 -62.5
t-61.5 -93.5t-22.5 -115.5t22.5 -115.5t61.5 -93.5t92 -62.5t113 -22.5t113 22.5t92 62.5t61.5 93.5t22.5 115.5zM568 208q-29 -26 -59 -39t-72 -13q-41 0 -74 14t-56 40t-36 63t-13 83t13 83t36 63t56 40t74 14q42 0 72 -13t59 -39l-46 -47q-23 20 -41 27.5t-44 7.5
q-57 0 -82.5 -38.5t-25.5 -97.5t25.5 -97.5t82.5 -38.5q26 0 44 7.5t41 27.5z" />
    <glyph glyph-name="ordfeminine" unicode="&#xaa;" horiz-adv-x="452" 
d="M298 307v36q-22 -22 -45.5 -31t-60.5 -9q-38 0 -63.5 8.5t-44.5 27.5q-16 16 -24 38.5t-8 48.5q0 51 35 84t104 33h105v28q0 38 -20 56t-67 18q-33 0 -51.5 -8.5t-35.5 -30.5l-55 52q29 34 62 46t84 12q166 0 166 -139v-270h-81zM296 485h-93q-35 0 -52.5 -15t-17.5 -42
t16.5 -41t54.5 -14q23 0 41.5 3.5t33.5 18.5q17 16 17 58v32z" />
    <glyph glyph-name="guillemotleft" unicode="&#xab;" horiz-adv-x="592" 
d="M37 272l230 229v-123l-107 -106l107 -107v-123zM290 272l230 229v-123l-108 -106l108 -107v-123z" />
    <glyph glyph-name="logicalnot" unicode="&#xac;" 
d="M389 98v141h-341v95h436v-236h-95z" />
    <glyph glyph-name="uni00AD" unicode="&#xad;" horiz-adv-x="426" 
d="M67 230v95h292v-95h-292z" />
    <glyph glyph-name="registered" unicode="&#xae;" horiz-adv-x="862" 
d="M793 356q0 -75 -28.5 -141t-77.5 -115t-115 -77.5t-141 -28.5t-141 28.5t-115 77.5t-77.5 115t-28.5 141t28.5 141t77.5 115t115 77.5t141 28.5t141 -28.5t115 -77.5t77.5 -115t28.5 -141zM720 356q0 62 -22.5 116t-61.5 93.5t-91.5 62.5t-113.5 23t-114 -23t-92 -62.5
t-61.5 -93.5t-22.5 -116t22.5 -116t61.5 -93.5t92 -62.5t114 -23t113.5 23t91.5 62.5t61.5 93.5t22.5 116zM507 161l-80 155h-50v-155h-72v391h147q28 0 51 -9.5t39.5 -26t26 -38.5t9.5 -46q0 -42 -22.5 -68.5t-54.5 -37.5l87 -165h-81zM507 432q0 25 -17.5 42t-46.5 17h-66
v-118h66q29 0 46.5 17t17.5 42z" />
    <glyph glyph-name="macron" unicode="&#xaf;" horiz-adv-x="500" 
d="M95 691h309v-73h-309v73z" />
    <glyph glyph-name="degree" unicode="&#xb0;" horiz-adv-x="471" 
d="M410 549q0 -36 -14 -67.5t-37.5 -55.5t-55.5 -37.5t-68 -13.5t-67.5 13.5t-55.5 37.5t-37.5 55.5t-13.5 67.5t13.5 68t37.5 55.5t55.5 37.5t67.5 14t68 -14t55.5 -37.5t37.5 -55.5t14 -68zM326 549q0 19 -7 36t-19.5 30t-29 20t-35.5 7q-38 0 -64 -27t-26 -66t26 -65.5
t64 -26.5t64.5 26.5t26.5 65.5z" />
    <glyph glyph-name="plusminus" unicode="&#xb1;" 
d="M314 316v-169h-95v169h-168v95h168v168h95v-168h168v-95h-168zM51 0v95h431v-95h-431z" />
    <glyph glyph-name="twosuperior" unicode="&#xb2;" horiz-adv-x="325" 
d="M37 285v69l161 186q12 14 17 25.5t5 26.5q0 25 -13.5 40t-39.5 15q-20 0 -36.5 -11.5t-16.5 -43.5h-77q0 58 37 91t93 33q57 0 93.5 -33t36.5 -91q0 -31 -12 -51.5t-34 -46.5l-121 -140h167v-69h-260z" />
    <glyph glyph-name="threesuperior" unicode="&#xb3;" horiz-adv-x="325" 
d="M302 408q0 -32 -11 -56t-29.5 -40t-43 -24t-51.5 -8q-26 0 -50.5 7t-43.5 22.5t-31 39.5t-12 57h77q1 -29 19 -43t41 -14q26 0 42 16t16 45q0 27 -15.5 43.5t-45.5 16.5h-11v66h11q29 0 42.5 16t13.5 39q0 28 -16 42t-38 14q-23 0 -37.5 -13.5t-16.5 -38.5h-76
q2 57 39 89t91 32q28 0 52 -9t41 -25t27 -38.5t10 -49.5q0 -35 -14 -56.5t-36 -32.5q23 -12 39.5 -35t16.5 -62z" />
    <glyph glyph-name="acute" unicode="&#xb4;" horiz-adv-x="500" 
d="M275 599h-77l75 162h113z" />
    <glyph glyph-name="mu" unicode="&#xb5;" horiz-adv-x="569" 
d="M387 0v51q-26 -29 -61 -43t-73 -14q-45 0 -75 25v-224h-102v712h102v-309q0 -59 30 -86t73 -27t73.5 27t30.5 86v309h102v-507h-100z" />
    <glyph glyph-name="paragraph" unicode="&#xb6;" horiz-adv-x="637" 
d="M442 -205v820h-108v-820h-102v522q-41 0 -76.5 16t-61.5 43t-41 62.5t-15 74.5q0 45 16 81.5t45 62.5t71 40.5t93 14.5h281v-917h-102z" />
    <glyph glyph-name="periodcentered" unicode="&#xb7;" horiz-adv-x="278" 
d="M78 217v122h122v-122h-122z" />
    <glyph glyph-name="cedilla" unicode="&#xb8;" horiz-adv-x="500" 
d="M268 -211h-101l70 147h82z" />
    <glyph glyph-name="onesuperior" unicode="&#xb9;" horiz-adv-x="325" 
d="M147 285v341l-87 -76v87l87 75h77v-427h-77z" />
    <glyph glyph-name="ordmasculine" unicode="&#xba;" horiz-adv-x="458" 
d="M398 510q0 -52 -9.5 -90.5t-38.5 -68.5q-20 -20 -49.5 -34t-71.5 -14t-71 14t-49 34q-29 30 -38.5 68.5t-9.5 90.5q0 51 9.5 89.5t38.5 68.5q20 20 49 34t71 14t71.5 -14t49.5 -34q29 -30 38.5 -68.5t9.5 -89.5zM314 510q0 32 -3.5 61t-22.5 48q-23 23 -59 23
q-35 0 -58 -23q-19 -19 -23 -48t-4 -61t4 -61.5t23 -48.5q23 -23 58 -23q36 0 59 23q19 19 22.5 48.5t3.5 61.5z" />
    <glyph glyph-name="guillemotright" unicode="&#xbb;" horiz-adv-x="592" 
d="M325 42v123l107 107l-107 106v123l231 -229zM72 42v123l108 107l-108 106v123l231 -229z" />
    <glyph glyph-name="onequarter" unicode="&#xbc;" horiz-adv-x="847" 
d="M147 285v341l-87 -76v87l87 75h77v-427h-77zM297 0h-82l335 712h82zM788 61v-61h-73v61h-174v71l146 295h84l-147 -295h91v83h73v-83h40v-71h-40z" />
    <glyph glyph-name="onehalf" unicode="&#xbd;" horiz-adv-x="847" 
d="M147 285v341l-87 -76v87l87 75h77v-427h-77zM297 0h-82l335 712h82zM559 0v69l161 186q12 14 17 25.5t5 26.5q0 25 -13.5 40t-39.5 15q-20 0 -36.5 -11.5t-16.5 -43.5h-77q0 58 37 91t93 33q57 0 93.5 -33t36.5 -91q0 -31 -12 -51.5t-34 -46.5l-121 -140h167v-69h-260z
" />
    <glyph glyph-name="threequarters" unicode="&#xbe;" horiz-adv-x="847" 
d="M302 409q0 -32 -11 -56t-29.5 -40t-43 -24t-51.5 -8q-26 0 -50.5 7t-43.5 22.5t-31 39.5t-12 57h77q1 -29 19 -43t41 -14q26 0 42 16t16 45q0 27 -15.5 43.5t-45.5 16.5h-11v66h11q29 0 42.5 16t13.5 39q0 28 -16 42t-38 14q-23 0 -37.5 -13.5t-16.5 -38.5h-76
q2 57 39 89t91 32q28 0 52 -9t41 -25t27 -38.5t10 -49.5q0 -35 -14 -56.5t-36 -32.5q23 -12 39.5 -35t16.5 -62zM297 0h-82l335 712h82zM788 61v-61h-73v61h-174v71l146 295h84l-147 -295h91v83h73v-83h40v-71h-40z" />
    <glyph glyph-name="questiondown" unicode="&#xbf;" horiz-adv-x="511" 
d="M440 -19q0 -42 -15.5 -77.5t-42.5 -61t-63.5 -39.5t-78.5 -14q-41 0 -77 13.5t-63 38.5t-43 60.5t-16 79.5q0 36 13.5 65.5t33.5 57.5l78 108q8 11 13 26.5t5 27.5v30h102v-36q0 -31 -8.5 -53t-26.5 -46l-77 -105q-14 -18 -22.5 -36.5t-8.5 -39.5q0 -42 26.5 -70.5
t70.5 -28.5q47 0 72.5 29.5t25.5 70.5h102zM179 398v109h112v-109h-112z" />
    <glyph glyph-name="Agrave" unicode="&#xc0;" horiz-adv-x="625" 
d="M502 0l-49 143h-281l-49 -143h-115l261 712h87l261 -712h-115zM315 551l-111 -316h219zM285 781l-111 162h113l75 -162h-77z" />
    <glyph glyph-name="Aacute" unicode="&#xc1;" horiz-adv-x="625" 
d="M502 0l-49 143h-281l-49 -143h-115l261 712h87l261 -712h-115zM315 551l-111 -316h219zM336 781h-77l75 162h113z" />
    <glyph glyph-name="Acircumflex" unicode="&#xc2;" horiz-adv-x="625" 
d="M502 0l-49 143h-281l-49 -143h-115l261 712h87l261 -712h-115zM315 551l-111 -316h219zM398 781l-87 97l-87 -97h-85l129 161h86l129 -161h-85z" />
    <glyph glyph-name="Atilde" unicode="&#xc3;" horiz-adv-x="625" 
d="M502 0l-49 143h-281l-49 -143h-115l261 712h87l261 -712h-115zM315 551l-111 -316h219zM479 846q-34 -34 -57.5 -44.5t-46.5 -10.5q-22 0 -38.5 6t-36.5 17q-14 8 -27.5 13.5t-28.5 5.5q-13 0 -25 -4.5t-33 -25.5l-48 47q34 34 57 44.5t47 10.5q22 0 38.5 -6t36.5 -18
q15 -9 27.5 -14t27.5 -5q12 0 25.5 5.5t33.5 25.5l48 -47v0z" />
    <glyph glyph-name="Adieresis" unicode="&#xc4;" horiz-adv-x="625" 
d="M502 0l-49 143h-281l-49 -143h-115l261 712h87l261 -712h-115zM315 551l-111 -316h219zM375 786v108h92v-108h-92zM159 786v108h92v-108h-92z" />
    <glyph glyph-name="Aring" unicode="&#xc5;" horiz-adv-x="625" 
d="M502 0l-49 143h-281l-49 -143h-115l261 712h87l261 -712h-115zM315 551l-111 -316h219zM435 875q0 -26 -10 -48.5t-27 -39.5t-39.5 -27t-48.5 -10t-48.5 10t-39.5 27t-27 39.5t-10 48.5t10 48.5t27 39.5t39.5 27t48.5 10t48.5 -10t39.5 -27t27 -39.5t10 -48.5zM374 875
q0 26 -19 44.5t-45 18.5t-45 -18.5t-19 -44.5t19 -44.5t45 -18.5t45 18.5t19 44.5z" />
    <glyph glyph-name="AE" unicode="&#xc6;" horiz-adv-x="952" 
d="M442 0v162h-235l-84 -162h-118l374 712h518v-97h-347v-209h296v-97h-296v-212h347v-97h-455zM442 615l-188 -361h188v361z" />
    <glyph glyph-name="Ccedilla" unicode="&#xc7;" horiz-adv-x="628" 
d="M577 213q-19 -106 -87.5 -162.5t-166.5 -56.5q-59 0 -104 18.5t-80 53.5q-26 26 -40.5 54t-21.5 61.5t-8.5 76t-1.5 98.5t1.5 98.5t8.5 76t21.5 61.5t40.5 54q35 35 80 53.5t104 18.5q99 0 167 -56.5t87 -162.5h-110q-12 55 -48 89t-96 34q-64 0 -105 -44
q-14 -14 -22 -31t-13 -41.5t-6.5 -60.5t-1.5 -89t1.5 -89t6.5 -60.5t13 -41.5t22 -31q41 -44 105 -44q60 0 96.5 34t49.5 89h108zM323 -211h-101l70 147h82z" />
    <glyph glyph-name="Egrave" unicode="&#xc8;" horiz-adv-x="603" 
d="M93 0v712h455v-97h-347v-208h296v-96h-296v-214h347v-97h-455zM287 781l-111 162h113l75 -162h-77z" />
    <glyph glyph-name="Eacute" unicode="&#xc9;" horiz-adv-x="603" 
d="M93 0v712h455v-97h-347v-208h296v-96h-296v-214h347v-97h-455zM337 781h-77l75 162h113z" />
    <glyph glyph-name="Ecircumflex" unicode="&#xca;" horiz-adv-x="603" 
d="M93 0v712h455v-97h-347v-208h296v-96h-296v-214h347v-97h-455zM399 781l-87 97l-87 -97h-85l129 161h86l129 -161h-85z" />
    <glyph glyph-name="Edieresis" unicode="&#xcb;" horiz-adv-x="603" 
d="M93 0v712h455v-97h-347v-208h296v-96h-296v-214h347v-97h-455zM374 786v108h92v-108h-92zM158 786v108h92v-108h-92z" />
    <glyph glyph-name="Igrave" unicode="&#xcc;" horiz-adv-x="294" 
d="M93 0v712h108v-712h-108zM126 781l-111 162h113l75 -162h-77z" />
    <glyph glyph-name="Iacute" unicode="&#xcd;" horiz-adv-x="294" 
d="M93 0v712h108v-712h-108zM176 781h-77l75 162h113z" />
    <glyph glyph-name="Icircumflex" unicode="&#xce;" horiz-adv-x="294" 
d="M93 0v712h108v-712h-108zM236 781l-87 97l-87 -97h-85l129 161h86l129 -161h-85z" />
    <glyph glyph-name="Idieresis" unicode="&#xcf;" horiz-adv-x="294" 
d="M93 0v712h108v-712h-108zM211 786v108h92v-108h-92zM-5 786v108h92v-108h-92z" />
    <glyph glyph-name="Eth" unicode="&#xd0;" horiz-adv-x="684" 
d="M618 356q0 -43 -1 -81t-6.5 -71t-16.5 -61.5t-30 -52.5q-38 -47 -86.5 -68.5t-115.5 -21.5h-250v318h-74v83h74v311h250q67 0 115.5 -21.5t86.5 -68.5q19 -24 30 -52.5t16.5 -61.5t6.5 -71t1 -81zM510 356q0 80 -6 131t-32 80q-23 26 -53.5 37.5t-68.5 11.5h-130v-215
h138v-83h-138v-222h130q38 0 68.5 11.5t53.5 37.5q26 29 32 80t6 131z" />
    <glyph glyph-name="Ntilde" unicode="&#xd1;" horiz-adv-x="722" 
d="M530 0l-329 501v-501h-108v712h99l329 -500v500h108v-712h-99zM530 846q-34 -34 -57.5 -44.5t-46.5 -10.5q-22 0 -38.5 6t-36.5 17q-14 8 -27.5 13.5t-28.5 5.5q-13 0 -25 -4.5t-33 -25.5l-48 47q34 34 57 44.5t47 10.5q22 0 38.5 -6t36.5 -18q15 -9 27.5 -14t27.5 -5
q12 0 25.5 5.5t33.5 25.5l48 -47v0z" />
    <glyph glyph-name="Ograve" unicode="&#xd2;" horiz-adv-x="646" 
d="M579 356q0 -56 -1.5 -98.5t-8.5 -76t-21.5 -61.5t-40.5 -54q-35 -35 -80 -53.5t-104 -18.5t-104 18.5t-80 53.5q-26 26 -40.5 54t-21.5 61.5t-8.5 76t-1.5 98.5t1.5 98.5t8.5 76t21.5 61.5t40.5 54q35 35 80 53.5t104 18.5t104 -18.5t80 -53.5q26 -26 40.5 -54
t21.5 -61.5t8.5 -76t1.5 -98.5zM471 356q0 53 -1.5 89t-6 61t-13 41.5t-21.5 30.5q-42 44 -106 44t-106 -44q-13 -14 -21.5 -31t-13 -41.5t-6 -60.5t-1.5 -89t1.5 -88.5t6 -60.5t13 -41.5t21.5 -30.5q20 -21 47 -33t59 -12t59 12t47 33q13 14 21.5 30.5t13 41t6 60.5t1.5 89
zM298 781l-111 162h113l75 -162h-77z" />
    <glyph glyph-name="Oacute" unicode="&#xd3;" horiz-adv-x="646" 
d="M579 356q0 -56 -1.5 -98.5t-8.5 -76t-21.5 -61.5t-40.5 -54q-35 -35 -80 -53.5t-104 -18.5t-104 18.5t-80 53.5q-26 26 -40.5 54t-21.5 61.5t-8.5 76t-1.5 98.5t1.5 98.5t8.5 76t21.5 61.5t40.5 54q35 35 80 53.5t104 18.5t104 -18.5t80 -53.5q26 -26 40.5 -54
t21.5 -61.5t8.5 -76t1.5 -98.5zM471 356q0 53 -1.5 89t-6 61t-13 41.5t-21.5 30.5q-42 44 -106 44t-106 -44q-13 -14 -21.5 -31t-13 -41.5t-6 -60.5t-1.5 -89t1.5 -88.5t6 -60.5t13 -41.5t21.5 -30.5q20 -21 47 -33t59 -12t59 12t47 33q13 14 21.5 30.5t13 41t6 60.5t1.5 89
zM348 781h-77l75 162h113z" />
    <glyph glyph-name="Ocircumflex" unicode="&#xd4;" horiz-adv-x="646" 
d="M579 356q0 -56 -1.5 -98.5t-8.5 -76t-21.5 -61.5t-40.5 -54q-35 -35 -80 -53.5t-104 -18.5t-104 18.5t-80 53.5q-26 26 -40.5 54t-21.5 61.5t-8.5 76t-1.5 98.5t1.5 98.5t8.5 76t21.5 61.5t40.5 54q35 35 80 53.5t104 18.5t104 -18.5t80 -53.5q26 -26 40.5 -54
t21.5 -61.5t8.5 -76t1.5 -98.5zM471 356q0 53 -1.5 89t-6 61t-13 41.5t-21.5 30.5q-42 44 -106 44t-106 -44q-13 -14 -21.5 -31t-13 -41.5t-6 -60.5t-1.5 -89t1.5 -88.5t6 -60.5t13 -41.5t21.5 -30.5q20 -21 47 -33t59 -12t59 12t47 33q13 14 21.5 30.5t13 41t6 60.5t1.5 89
zM410 781l-87 97l-87 -97h-85l129 161h86l129 -161h-85z" />
    <glyph glyph-name="Otilde" unicode="&#xd5;" horiz-adv-x="646" 
d="M579 356q0 -56 -1.5 -98.5t-8.5 -76t-21.5 -61.5t-40.5 -54q-35 -35 -80 -53.5t-104 -18.5t-104 18.5t-80 53.5q-26 26 -40.5 54t-21.5 61.5t-8.5 76t-1.5 98.5t1.5 98.5t8.5 76t21.5 61.5t40.5 54q35 35 80 53.5t104 18.5t104 -18.5t80 -53.5q26 -26 40.5 -54
t21.5 -61.5t8.5 -76t1.5 -98.5zM471 356q0 53 -1.5 89t-6 61t-13 41.5t-21.5 30.5q-42 44 -106 44t-106 -44q-13 -14 -21.5 -31t-13 -41.5t-6 -60.5t-1.5 -89t1.5 -88.5t6 -60.5t13 -41.5t21.5 -30.5q20 -21 47 -33t59 -12t59 12t47 33q13 14 21.5 30.5t13 41t6 60.5t1.5 89
zM492 846q-34 -34 -57.5 -44.5t-46.5 -10.5q-22 0 -38.5 6t-36.5 17q-14 8 -27.5 13.5t-28.5 5.5q-13 0 -25 -4.5t-33 -25.5l-48 47q34 34 57 44.5t47 10.5q22 0 38.5 -6t36.5 -18q15 -9 27.5 -14t27.5 -5q12 0 25.5 5.5t33.5 25.5l48 -47v0z" />
    <glyph glyph-name="Odieresis" unicode="&#xd6;" horiz-adv-x="646" 
d="M579 356q0 -56 -1.5 -98.5t-8.5 -76t-21.5 -61.5t-40.5 -54q-35 -35 -80 -53.5t-104 -18.5t-104 18.5t-80 53.5q-26 26 -40.5 54t-21.5 61.5t-8.5 76t-1.5 98.5t1.5 98.5t8.5 76t21.5 61.5t40.5 54q35 35 80 53.5t104 18.5t104 -18.5t80 -53.5q26 -26 40.5 -54
t21.5 -61.5t8.5 -76t1.5 -98.5zM471 356q0 53 -1.5 89t-6 61t-13 41.5t-21.5 30.5q-42 44 -106 44t-106 -44q-13 -14 -21.5 -31t-13 -41.5t-6 -60.5t-1.5 -89t1.5 -88.5t6 -60.5t13 -41.5t21.5 -30.5q20 -21 47 -33t59 -12t59 12t47 33q13 14 21.5 30.5t13 41t6 60.5t1.5 89
zM385 786v108h92v-108h-92zM169 786v108h92v-108h-92z" />
    <glyph glyph-name="multiply" unicode="&#xd7;" 
d="M412 69l-146 145l-145 -145l-64 63l146 146l-146 146l64 64l145 -146l146 146l64 -64l-146 -146l146 -146z" />
    <glyph glyph-name="Oslash" unicode="&#xd8;" horiz-adv-x="646" 
d="M504 649q28 -27 43 -55t22 -62.5t8.5 -77t1.5 -98.5t-1.5 -98.5t-8.5 -76t-21.5 -61.5t-40.5 -54q-35 -35 -80 -53.5t-104 -18.5q-68 0 -120 26l-30 -64h-82l51 107l-3 3q-26 26 -40.5 53.5t-21.5 61.5t-8.5 76.5t-1.5 98.5t1.5 98.5t8.5 76t21.5 61.5t40.5 54
q35 35 80 53.5t104 18.5q68 0 120 -26l30 64h83zM175 356q0 -40 1 -69.5t3 -52t6.5 -39t10.5 -29.5l207 433q-34 23 -80 23q-64 0 -106 -44q-13 -14 -21.5 -31t-13 -41.5t-6 -60.5t-1.5 -89zM471 356q0 39 -1 69t-3 52.5t-6 39t-10 29.5l-207 -433q34 -23 79 -23q32 0 59 12
t47 33q13 14 21.5 30.5t13 41.5t6 60.5t1.5 88.5z" />
    <glyph glyph-name="Ugrave" unicode="&#xd9;" horiz-adv-x="675" 
d="M593 240q0 -55 -19.5 -100.5t-54 -77.5t-81.5 -50t-101 -18t-101 18t-81 50t-53.5 77.5t-19.5 100.5v472h108v-467q0 -72 40 -113t107 -41t107.5 41t40.5 113v467h108v-472zM313 781l-111 162h113l75 -162h-77z" />
    <glyph glyph-name="Uacute" unicode="&#xda;" horiz-adv-x="675" 
d="M593 240q0 -55 -19.5 -100.5t-54 -77.5t-81.5 -50t-101 -18t-101 18t-81 50t-53.5 77.5t-19.5 100.5v472h108v-467q0 -72 40 -113t107 -41t107.5 41t40.5 113v467h108v-472zM363 781h-77l75 162h113z" />
    <glyph glyph-name="Ucircumflex" unicode="&#xdb;" horiz-adv-x="675" 
d="M593 240q0 -55 -19.5 -100.5t-54 -77.5t-81.5 -50t-101 -18t-101 18t-81 50t-53.5 77.5t-19.5 100.5v472h108v-467q0 -72 40 -113t107 -41t107.5 41t40.5 113v467h108v-472zM425 781l-87 97l-87 -97h-85l129 161h86l129 -161h-85z" />
    <glyph glyph-name="Udieresis" unicode="&#xdc;" horiz-adv-x="675" 
d="M593 240q0 -55 -19.5 -100.5t-54 -77.5t-81.5 -50t-101 -18t-101 18t-81 50t-53.5 77.5t-19.5 100.5v472h108v-467q0 -72 40 -113t107 -41t107.5 41t40.5 113v467h108v-472zM399 786v108h92v-108h-92zM183 786v108h92v-108h-92z" />
    <glyph glyph-name="Yacute" unicode="&#xdd;" horiz-adv-x="544" 
d="M326 293v-293h-108v293l-213 419h118l149 -313l149 313h118zM298 781h-77l75 162h113z" />
    <glyph glyph-name="Thorn" unicode="&#xde;" horiz-adv-x="637" 
d="M591 359q0 -47 -16 -86t-46 -68t-72 -45t-94 -16h-162v-144h-108v712h108v-137h162q52 0 94 -16.5t72 -45t46 -68.5t16 -86zM482 359q0 57 -34.5 88t-91.5 31h-155v-237h155q57 0 91.5 30.5t34.5 87.5z" />
    <glyph glyph-name="germandbls" unicode="&#xdf;" horiz-adv-x="565" 
d="M501 152q0 -72 -41 -113q-21 -20 -47.5 -29.5t-66.5 -9.5h-53v87h32q19 0 30 4t22 13q21 18 21 57v156q0 19 -4.5 30.5t-13.5 22.5t-22 15t-30 4h-35v81h31q32 0 53 19t21 56q0 38 -25 60q-26 24 -81 24q-60 0 -84 -30.5t-24 -82.5v-516h-103v522q0 50 15.5 87t44 61.5
t67.5 36.5t87 12q44 0 81.5 -10t65 -31t43 -53.5t15.5 -76.5t-18 -71.5t-44 -44.5q32 -16 47.5 -41.5t15.5 -73.5v-165z" />
    <glyph glyph-name="agrave" unicode="&#xe0;" horiz-adv-x="530" 
d="M354 0v46q-28 -28 -58 -40t-77 -12q-48 0 -80.5 11.5t-55.5 34.5q-40 42 -40 109q0 64 44 105t132 41h133v36q0 49 -25.5 72t-85.5 23q-41 0 -65 -11.5t-46 -38.5l-66 63q18 21 36.5 35t40 23t47 12.5t57.5 3.5q106 0 157.5 -44t51.5 -130v-339h-100zM352 224h-117
q-93 0 -93 -73q0 -35 22.5 -53.5t73.5 -18.5q27 0 49.5 5t42.5 24q22 21 22 75v41zM233 599l-111 162h113l75 -162h-77z" />
    <glyph glyph-name="aacute" unicode="&#xe1;" horiz-adv-x="530" 
d="M354 0v46q-28 -28 -58 -40t-77 -12q-48 0 -80.5 11.5t-55.5 34.5q-40 42 -40 109q0 64 44 105t132 41h133v36q0 49 -25.5 72t-85.5 23q-41 0 -65 -11.5t-46 -38.5l-66 63q18 21 36.5 35t40 23t47 12.5t57.5 3.5q106 0 157.5 -44t51.5 -130v-339h-100zM352 224h-117
q-93 0 -93 -73q0 -35 22.5 -53.5t73.5 -18.5q27 0 49.5 5t42.5 24q22 21 22 75v41zM283 599h-77l75 162h113z" />
    <glyph glyph-name="acircumflex" unicode="&#xe2;" horiz-adv-x="530" 
d="M354 0v46q-28 -28 -58 -40t-77 -12q-48 0 -80.5 11.5t-55.5 34.5q-40 42 -40 109q0 64 44 105t132 41h133v36q0 49 -25.5 72t-85.5 23q-41 0 -65 -11.5t-46 -38.5l-66 63q18 21 36.5 35t40 23t47 12.5t57.5 3.5q106 0 157.5 -44t51.5 -130v-339h-100zM352 224h-117
q-93 0 -93 -73q0 -35 22.5 -53.5t73.5 -18.5q27 0 49.5 5t42.5 24q22 21 22 75v41zM345 599l-87 97l-87 -97h-85l129 161h86l129 -161h-85z" />
    <glyph glyph-name="atilde" unicode="&#xe3;" horiz-adv-x="530" 
d="M354 0v46q-28 -28 -58 -40t-77 -12q-48 0 -80.5 11.5t-55.5 34.5q-40 42 -40 109q0 64 44 105t132 41h133v36q0 49 -25.5 72t-85.5 23q-41 0 -65 -11.5t-46 -38.5l-66 63q18 21 36.5 35t40 23t47 12.5t57.5 3.5q106 0 157.5 -44t51.5 -130v-339h-100zM352 224h-117
q-93 0 -93 -73q0 -35 22.5 -53.5t73.5 -18.5q27 0 49.5 5t42.5 24q22 21 22 75v41zM426 664q-34 -34 -57.5 -44.5t-46.5 -10.5q-22 0 -38.5 6t-36.5 17q-14 8 -27.5 13.5t-28.5 5.5q-13 0 -25 -4.5t-33 -25.5l-48 47q34 34 57 44.5t47 10.5q22 0 38.5 -6t36.5 -18
q15 -9 27.5 -14t27.5 -5q12 0 25.5 5.5t33.5 25.5l48 -47v0z" />
    <glyph glyph-name="adieresis" unicode="&#xe4;" horiz-adv-x="530" 
d="M354 0v46q-28 -28 -58 -40t-77 -12q-48 0 -80.5 11.5t-55.5 34.5q-40 42 -40 109q0 64 44 105t132 41h133v36q0 49 -25.5 72t-85.5 23q-41 0 -65 -11.5t-46 -38.5l-66 63q18 21 36.5 35t40 23t47 12.5t57.5 3.5q106 0 157.5 -44t51.5 -130v-339h-100zM352 224h-117
q-93 0 -93 -73q0 -35 22.5 -53.5t73.5 -18.5q27 0 49.5 5t42.5 24q22 21 22 75v41zM320 604v108h92v-108h-92zM104 604v108h92v-108h-92z" />
    <glyph glyph-name="aring" unicode="&#xe5;" horiz-adv-x="530" 
d="M354 0v46q-28 -28 -58 -40t-77 -12q-48 0 -80.5 11.5t-55.5 34.5q-40 42 -40 109q0 64 44 105t132 41h133v36q0 49 -25.5 72t-85.5 23q-41 0 -65 -11.5t-46 -38.5l-66 63q18 21 36.5 35t40 23t47 12.5t57.5 3.5q106 0 157.5 -44t51.5 -130v-339h-100zM352 224h-117
q-93 0 -93 -73q0 -35 22.5 -53.5t73.5 -18.5q27 0 49.5 5t42.5 24q22 21 22 75v41zM382 701q0 -26 -10 -48.5t-27 -39.5t-39.5 -27t-48.5 -10t-48.5 10t-39.5 27t-27 39.5t-10 48.5t10 48.5t27 39.5t39.5 27t48.5 10t48.5 -10t39.5 -27t27 -39.5t10 -48.5zM321 701
q0 26 -19 44.5t-45 18.5t-45 -18.5t-19 -44.5t19 -44.5t45 -18.5t45 18.5t19 44.5z" />
    <glyph glyph-name="ae" unicode="&#xe6;" horiz-adv-x="837" 
d="M453 224q0 -66 33 -104t96 -38q43 0 70 12.5t53 39.5l65 -61q-19 -20 -38.5 -34.5t-42 -24.5t-49.5 -15t-60 -5q-56 0 -102 18.5t-77 60.5q-39 -47 -81 -63t-101 -16q-48 0 -80.5 11.5t-55.5 34.5q-40 42 -40 109q0 64 44 105t132 41h133v36q0 49 -25.5 72t-85.5 23
q-41 0 -65 -11.5t-46 -38.5l-66 63q18 21 36.5 35t40 23t47 12.5t57.5 3.5q124 0 172 -67q26 34 64 50.5t86 16.5q51 0 91 -17.5t67.5 -50t42 -78t14.5 -100.5v-43h-329zM682 295q-2 23 -4 37.5t-10 31.5q-13 29 -38.5 46.5t-61.5 17.5q-37 0 -62.5 -17.5t-38.5 -46.5
q-8 -17 -10 -31.5t-3 -37.5h228zM352 224h-117q-93 0 -93 -73q0 -35 22.5 -53.5t73.5 -18.5q27 0 49.5 5t42.5 24q22 21 22 75v41z" />
    <glyph glyph-name="ccedilla" unicode="&#xe7;" horiz-adv-x="485" 
d="M448 66q-36 -38 -75 -55t-92 -17q-43 0 -83.5 14t-72 45t-51 80.5t-19.5 120.5t19.5 120.5t51 80t72 44.5t83.5 14q53 0 92 -16.5t75 -54.5l-70 -68q-24 26 -45.5 37t-51.5 11q-60 0 -94 -45q-17 -21 -23.5 -49.5t-6.5 -73.5t6.5 -74t23.5 -50q34 -45 94 -45
q30 0 51.5 11t45.5 37zM268 -211h-101l70 147h82z" />
    <glyph glyph-name="egrave" unicode="&#xe8;" horiz-adv-x="539" 
d="M156 224q0 -66 33 -104t96 -38q43 0 69.5 12.5t53.5 39.5l65 -61q-20 -20 -39.5 -34.5t-42 -24.5t-49 -15t-59.5 -5q-48 0 -89.5 13.5t-72 44t-48.5 80.5t-18 122q0 125 58.5 192t156.5 67q51 0 91 -17.5t67.5 -50t42 -78t14.5 -100.5v-43h-329zM384 295q-2 23 -4 37.5
t-10 31.5q-13 29 -38.5 46.5t-61.5 17.5q-37 0 -62.5 -17.5t-38.5 -46.5q-8 -17 -10 -31.5t-3 -37.5h228zM248 599l-111 162h113l75 -162h-77z" />
    <glyph glyph-name="eacute" unicode="&#xe9;" horiz-adv-x="539" 
d="M156 224q0 -66 33 -104t96 -38q43 0 69.5 12.5t53.5 39.5l65 -61q-20 -20 -39.5 -34.5t-42 -24.5t-49 -15t-59.5 -5q-48 0 -89.5 13.5t-72 44t-48.5 80.5t-18 122q0 125 58.5 192t156.5 67q51 0 91 -17.5t67.5 -50t42 -78t14.5 -100.5v-43h-329zM384 295q-2 23 -4 37.5
t-10 31.5q-13 29 -38.5 46.5t-61.5 17.5q-37 0 -62.5 -17.5t-38.5 -46.5q-8 -17 -10 -31.5t-3 -37.5h228zM298 599h-77l75 162h113z" />
    <glyph glyph-name="ecircumflex" unicode="&#xea;" horiz-adv-x="539" 
d="M156 224q0 -66 33 -104t96 -38q43 0 69.5 12.5t53.5 39.5l65 -61q-20 -20 -39.5 -34.5t-42 -24.5t-49 -15t-59.5 -5q-48 0 -89.5 13.5t-72 44t-48.5 80.5t-18 122q0 125 58.5 192t156.5 67q51 0 91 -17.5t67.5 -50t42 -78t14.5 -100.5v-43h-329zM384 295q-2 23 -4 37.5
t-10 31.5q-13 29 -38.5 46.5t-61.5 17.5q-37 0 -62.5 -17.5t-38.5 -46.5q-8 -17 -10 -31.5t-3 -37.5h228zM359 599l-87 97l-87 -97h-85l129 161h86l129 -161h-85z" />
    <glyph glyph-name="edieresis" unicode="&#xeb;" horiz-adv-x="539" 
d="M156 224q0 -66 33 -104t96 -38q43 0 69.5 12.5t53.5 39.5l65 -61q-20 -20 -39.5 -34.5t-42 -24.5t-49 -15t-59.5 -5q-48 0 -89.5 13.5t-72 44t-48.5 80.5t-18 122q0 125 58.5 192t156.5 67q51 0 91 -17.5t67.5 -50t42 -78t14.5 -100.5v-43h-329zM384 295q-2 23 -4 37.5
t-10 31.5q-13 29 -38.5 46.5t-61.5 17.5q-37 0 -62.5 -17.5t-38.5 -46.5q-8 -17 -10 -31.5t-3 -37.5h228zM334 604v108h92v-108h-92zM118 604v108h92v-108h-92z" />
    <glyph glyph-name="igrave" unicode="&#xec;" horiz-adv-x="264" 
d="M81 0v507h102v-507h-102zM99 599l-111 162h113l75 -162h-77z" />
    <glyph glyph-name="iacute" unicode="&#xed;" horiz-adv-x="264" 
d="M81 0v507h102v-507h-102zM167 599h-77l75 162h113z" />
    <glyph glyph-name="icircumflex" unicode="&#xee;" horiz-adv-x="264" 
d="M81 0v507h102v-507h-102zM223 599l-87 97l-87 -97h-85l129 161h86l129 -161h-85z" />
    <glyph glyph-name="idieresis" unicode="&#xef;" horiz-adv-x="264" 
d="M81 0v507h102v-507h-102zM196 604v108h92v-108h-92zM-20 604v108h92v-108h-92z" />
    <glyph glyph-name="eth" unicode="&#xf0;" horiz-adv-x="537" 
d="M476 249q0 -63 -11.5 -111t-47.5 -85q-24 -26 -61 -42.5t-88 -16.5t-87.5 16.5t-60.5 42.5q-36 37 -47.5 85t-11.5 111t11.5 111t47.5 85q39 40 104 51q16 3 34 3q20 0 42 -5l-45 81h-116v72h78l-39 70h108l39 -70h87v-72h-50l51 -94q19 -35 31.5 -62.5t19.5 -53.5
t9.5 -53.5t2.5 -62.5zM374 249q0 40 -5 76t-28 59q-14 14 -32.5 21.5t-40.5 7.5q-43 0 -72 -29q-23 -23 -28 -59t-5 -76t5 -76t28 -59q29 -29 72 -29q22 0 40.5 7.5t32.5 21.5q23 23 28 59t5 76z" />
    <glyph glyph-name="ntilde" unicode="&#xf1;" horiz-adv-x="568" 
d="M390 0v309q0 59 -29.5 86t-72.5 27t-74 -27.5t-31 -85.5v-309h-102v507h100v-51q26 29 61.5 43t73.5 14q39 0 70.5 -12t54.5 -34q29 -29 40 -64.5t11 -78.5v-324h-102zM455 664q-34 -34 -57.5 -44.5t-46.5 -10.5q-22 0 -38.5 6t-36.5 17q-14 8 -27.5 13.5t-28.5 5.5
q-13 0 -25 -4.5t-33 -25.5l-48 47q34 34 57 44.5t47 10.5q22 0 38.5 -6t36.5 -18q15 -9 27.5 -14t27.5 -5q12 0 25.5 5.5t33.5 25.5l48 -47v0z" />
    <glyph glyph-name="ograve" unicode="&#xf2;" horiz-adv-x="537" 
d="M480 254q0 -65 -12 -113.5t-48 -86.5q-25 -26 -62.5 -43t-89.5 -17t-89 17t-62 43q-36 38 -48 86.5t-12 113.5q0 64 12 112.5t48 86.5q25 26 62 43t89 17t89.5 -17t62.5 -43q36 -38 48 -86.5t12 -112.5zM378 254q0 42 -6 79t-29 60q-29 29 -75 29q-45 0 -74 -29
q-23 -23 -29 -60t-6 -79t6 -79t29 -60q30 -30 74 -30q45 0 75 30q23 23 29 60t6 79zM236 599l-111 162h113l75 -162h-77z" />
    <glyph glyph-name="oacute" unicode="&#xf3;" horiz-adv-x="537" 
d="M480 254q0 -65 -12 -113.5t-48 -86.5q-25 -26 -62.5 -43t-89.5 -17t-89 17t-62 43q-36 38 -48 86.5t-12 113.5q0 64 12 112.5t48 86.5q25 26 62 43t89 17t89.5 -17t62.5 -43q36 -38 48 -86.5t12 -112.5zM378 254q0 42 -6 79t-29 60q-29 29 -75 29q-45 0 -74 -29
q-23 -23 -29 -60t-6 -79t6 -79t29 -60q30 -30 74 -30q45 0 75 30q23 23 29 60t6 79zM293 599h-77l75 162h113z" />
    <glyph glyph-name="ocircumflex" unicode="&#xf4;" horiz-adv-x="537" 
d="M480 254q0 -65 -12 -113.5t-48 -86.5q-25 -26 -62.5 -43t-89.5 -17t-89 17t-62 43q-36 38 -48 86.5t-12 113.5q0 64 12 112.5t48 86.5q25 26 62 43t89 17t89.5 -17t62.5 -43q36 -38 48 -86.5t12 -112.5zM378 254q0 42 -6 79t-29 60q-29 29 -75 29q-45 0 -74 -29
q-23 -23 -29 -60t-6 -79t6 -79t29 -60q30 -30 74 -30q45 0 75 30q23 23 29 60t6 79zM355 599l-87 97l-87 -97h-85l129 161h86l129 -161h-85z" />
    <glyph glyph-name="otilde" unicode="&#xf5;" horiz-adv-x="537" 
d="M480 254q0 -65 -12 -113.5t-48 -86.5q-25 -26 -62.5 -43t-89.5 -17t-89 17t-62 43q-36 38 -48 86.5t-12 113.5q0 64 12 112.5t48 86.5q25 26 62 43t89 17t89.5 -17t62.5 -43q36 -38 48 -86.5t12 -112.5zM378 254q0 42 -6 79t-29 60q-29 29 -75 29q-45 0 -74 -29
q-23 -23 -29 -60t-6 -79t6 -79t29 -60q30 -30 74 -30q45 0 75 30q23 23 29 60t6 79zM436 664q-34 -34 -57.5 -44.5t-46.5 -10.5q-22 0 -38.5 6t-36.5 17q-14 8 -27.5 13.5t-28.5 5.5q-13 0 -25 -4.5t-33 -25.5l-48 47q34 34 57 44.5t47 10.5q22 0 38.5 -6t36.5 -18
q15 -9 27.5 -14t27.5 -5q12 0 25.5 5.5t33.5 25.5l48 -47v0z" />
    <glyph glyph-name="odieresis" unicode="&#xf6;" horiz-adv-x="537" 
d="M480 254q0 -65 -12 -113.5t-48 -86.5q-25 -26 -62.5 -43t-89.5 -17t-89 17t-62 43q-36 38 -48 86.5t-12 113.5q0 64 12 112.5t48 86.5q25 26 62 43t89 17t89.5 -17t62.5 -43q36 -38 48 -86.5t12 -112.5zM378 254q0 42 -6 79t-29 60q-29 29 -75 29q-45 0 -74 -29
q-23 -23 -29 -60t-6 -79t6 -79t29 -60q30 -30 74 -30q45 0 75 30q23 23 29 60t6 79zM330 604v108h92v-108h-92zM114 604v108h92v-108h-92z" />
    <glyph glyph-name="divide" unicode="&#xf7;" 
d="M48 230v95h436v-95h-436zM212 33v109h109v-109h-109zM212 414v109h109v-109h-109z" />
    <glyph glyph-name="oslash" unicode="&#xf8;" horiz-adv-x="537" 
d="M480 254q0 -65 -12 -113.5t-48 -86.5q-25 -26 -62.5 -43t-89.5 -17q-32 0 -57.5 7t-46.5 18l-37 -63h-69l58 99q-36 38 -47.5 86.5t-11.5 112.5t12 112.5t48 86.5q25 26 62 43t89 17q32 0 58 -7t47 -18l37 63h69l-59 -98q36 -38 48 -86.5t12 -112.5zM378 254
q0 30 -2.5 58t-12.5 51l-154 -260q26 -18 59 -18q45 0 75 30q23 23 29 60t6 79zM328 405q-26 17 -60 17q-45 0 -74 -29q-23 -23 -29 -60t-6 -79q0 -30 2.5 -58t12.5 -51z" />
    <glyph glyph-name="ugrave" unicode="&#xf9;" horiz-adv-x="568" 
d="M387 0v51q-26 -29 -61.5 -43t-73.5 -14q-39 0 -70.5 12t-54.5 34q-29 29 -40 64.5t-11 78.5v324h102v-309q0 -59 29.5 -86t72.5 -27q21 0 40.5 6.5t33.5 20.5t22.5 35.5t8.5 50.5v309h102v-507h-100zM256 599l-111 162h113l75 -162h-77z" />
    <glyph glyph-name="uacute" unicode="&#xfa;" horiz-adv-x="568" 
d="M387 0v51q-26 -29 -61.5 -43t-73.5 -14q-39 0 -70.5 12t-54.5 34q-29 29 -40 64.5t-11 78.5v324h102v-309q0 -59 29.5 -86t72.5 -27q21 0 40.5 6.5t33.5 20.5t22.5 35.5t8.5 50.5v309h102v-507h-100zM306 599h-77l75 162h113z" />
    <glyph glyph-name="ucircumflex" unicode="&#xfb;" horiz-adv-x="568" 
d="M387 0v51q-26 -29 -61.5 -43t-73.5 -14q-39 0 -70.5 12t-54.5 34q-29 29 -40 64.5t-11 78.5v324h102v-309q0 -59 29.5 -86t72.5 -27q21 0 40.5 6.5t33.5 20.5t22.5 35.5t8.5 50.5v309h102v-507h-100zM368 599l-87 97l-87 -97h-85l129 161h86l129 -161h-85z" />
    <glyph glyph-name="udieresis" unicode="&#xfc;" horiz-adv-x="568" 
d="M387 0v51q-26 -29 -61.5 -43t-73.5 -14q-39 0 -70.5 12t-54.5 34q-29 29 -40 64.5t-11 78.5v324h102v-309q0 -59 29.5 -86t72.5 -27q21 0 40.5 6.5t33.5 20.5t22.5 35.5t8.5 50.5v309h102v-507h-100zM342 604v108h92v-108h-92zM126 604v108h92v-108h-92z" />
    <glyph glyph-name="yacute" unicode="&#xfd;" horiz-adv-x="468" 
d="M240 -101q-14 -40 -37 -63q-21 -21 -48 -29t-56 -8h-41v92h26q32 0 47 11.5t26 42.5l28 79l-177 483h108l121 -357l118 357h109zM262 599h-77l75 162h113z" />
    <glyph glyph-name="thorn" unicode="&#xfe;" horiz-adv-x="554" 
d="M496 254q0 -31 -2 -61.5t-8 -58.5t-17.5 -52t-29.5 -43q-21 -21 -53 -33t-70 -12q-41 0 -73 12t-60 46v-257h-102v917h102v-256q28 33 60 45t73 12q38 0 70 -12t53 -33q18 -19 29.5 -43t17.5 -51.5t8 -58t2 -61.5zM394 254q0 34 -3.5 64.5t-14.5 53.5t-32 36.5t-55 13.5
q-35 0 -56 -13.5t-32 -36.5t-14.5 -53.5t-3.5 -64.5t3.5 -64.5t14.5 -54t32 -37t56 -13.5q34 0 55 13.5t32 37t14.5 54t3.5 64.5z" />
    <glyph glyph-name="ydieresis" unicode="&#xff;" horiz-adv-x="468" 
d="M240 -101q-14 -40 -37 -63q-21 -21 -48 -29t-56 -8h-41v92h26q32 0 47 11.5t26 42.5l28 79l-177 483h108l121 -357l118 357h109zM299 604v108h92v-108h-92zM83 604v108h92v-108h-92z" />
    <glyph glyph-name="dotlessi" unicode="&#x131;" horiz-adv-x="264" 
d="M81 0v507h102v-507h-102z" />
    <glyph glyph-name="IJ" unicode="&#x132;" horiz-adv-x="800" 
d="M93 0v712h108v-712h-108zM717 225q0 -56 -18.5 -99t-51 -72t-75.5 -44.5t-92 -15.5q-55 0 -95.5 16t-77.5 53l72 71q19 -19 40.5 -31t60.5 -12q60 0 94.5 36t34.5 106v479h108v-487z" />
    <glyph glyph-name="ij" unicode="&#x133;" horiz-adv-x="528" 
d="M81 0v507h102v-507h-102zM78 607v108h108v-108h-108zM447 -67q0 -28 -8 -53.5t-25 -44.5t-43.5 -30.5t-62.5 -11.5h-63v87h45q31 0 43 15t12 44v568h102v-574zM342 607v108h108v-108h-108z" />
    <glyph glyph-name="Lslash" unicode="&#x141;" horiz-adv-x="587" 
d="M107 0v266l-69 -44v93l69 43v354h108v-286l141 89v-91l-141 -89v-238h342v-97h-450z" />
    <glyph glyph-name="lslash" unicode="&#x142;" horiz-adv-x="326" 
d="M231 0q-36 0 -62.5 11.5t-43.5 30.5t-25 44.5t-8 53.5v181l-59 -36v87l59 36v304h102v-242l70 43v-86l-70 -44v-237q0 -29 12 -44t43 -15h45v-87h-63z" />
    <glyph glyph-name="OE" unicode="&#x152;" horiz-adv-x="977" 
d="M321 -6q-59 0 -103 18.5t-79 53.5q-26 26 -40.5 54t-21.5 61.5t-8.5 76t-1.5 98.5t1.5 98.5t8.5 76t21.5 61.5t40.5 54q35 35 79 53.5t103 18.5q43 0 82 -15t68 -49v58h450v-96h-342v-210h291v-94h-291v-216h343v-96h-451v58q-29 -34 -69.5 -49t-80.5 -15zM322 90
q32 0 60 12.5t47 32.5q13 14 21.5 30.5t13 41t6 60t1.5 89.5t-1.5 89.5t-6 60t-13 41t-21.5 30.5q-19 20 -47.5 32t-60.5 12q-63 0 -104 -43q-13 -14 -21.5 -31t-13 -41.5t-6 -60.5t-1.5 -89t1.5 -88.5t6 -60.5t13 -41.5t21.5 -30.5q20 -21 46.5 -33t58.5 -12z" />
    <glyph glyph-name="oe" unicode="&#x153;" horiz-adv-x="862" 
d="M478 224q0 -66 33 -104t96 -38q43 0 70 12.5t53 39.5l65 -61q-19 -20 -38.5 -34.5t-42 -24.5t-49 -15t-59.5 -5q-56 0 -100.5 19t-74.5 61q-24 -37 -65.5 -58.5t-97.5 -21.5q-51 0 -88.5 17t-62.5 43q-36 38 -48 86.5t-12 113.5q0 64 12 112.5t48 86.5q25 26 62.5 43
t88.5 17q57 0 98.5 -21.5t65.5 -59.5q26 40 67 60.5t93 20.5q51 0 91 -17.5t67.5 -50t42 -77.5t14.5 -99v-45h-329zM378 254q0 42 -6 79t-29 60q-29 29 -75 29q-45 0 -74 -29q-23 -23 -29 -60t-6 -79t6 -79t29 -60q30 -30 74 -30q45 0 75 30q23 23 29 60t6 79zM707 295
q-2 23 -4 37.5t-10 31.5q-13 29 -38.5 46.5t-61.5 17.5q-37 0 -62.5 -17.5t-38.5 -46.5q-8 -17 -10 -31.5t-3 -37.5h228z" />
    <glyph glyph-name="Scaron" unicode="&#x160;" horiz-adv-x="590" 
d="M538 203q0 -49 -19 -88t-53 -66t-81 -41t-103 -14q-81 0 -140.5 21t-111.5 73l71 71q39 -39 84 -54t99 -15q71 0 109 28.5t38 81.5q0 50 -28 74q-26 23 -78 30l-84 12q-89 14 -134 57q-53 48 -53 137q0 46 16.5 84.5t47 66t74.5 42.5t100 15q72 0 123.5 -19t97.5 -62
l-68 -68q-33 32 -72 43.5t-85 11.5q-63 0 -96 -31t-33 -80q0 -20 6 -37t20 -29t31.5 -19.5t46.5 -12.5l85 -13q49 -8 79 -20t53 -33q58 -53 58 -146zM335 781h-86l-129 161h85l87 -97l87 97h85z" />
    <glyph glyph-name="scaron" unicode="&#x161;" horiz-adv-x="499" 
d="M456 155q0 -40 -16 -70t-44 -50.5t-67 -30.5t-84 -10q-62 0 -115 14.5t-98 58.5l67 67q31 -32 69.5 -42.5t76.5 -10.5q48 0 79.5 17t31.5 53q0 26 -15.5 41t-52.5 19l-81 7q-72 7 -111 40t-39 100q0 37 15 66t41 49t60.5 30t74.5 10q58 0 105.5 -13t82.5 -44l-64 -65
q-24 20 -56.5 28.5t-68.5 8.5q-47 0 -69.5 -18t-22.5 -47q0 -26 16 -40t54 -18l71 -6q79 -7 119.5 -42t40.5 -102zM291 599h-86l-129 161h85l87 -97l87 97h85z" />
    <glyph glyph-name="Ydieresis" unicode="&#x178;" horiz-adv-x="544" 
d="M326 293v-293h-108v293l-213 419h118l149 -313l149 313h118zM119 786v108h92v-108h-92zM334 786v108h92v-108h-92z" />
    <glyph glyph-name="Zcaron" unicode="&#x17d;" horiz-adv-x="552" 
d="M48 0v93l329 522h-315v97h442v-88l-331 -527h331v-97h-456zM324 781h-86l-129 161h85l87 -97l87 97h85z" />
    <glyph glyph-name="zcaron" unicode="&#x17e;" horiz-adv-x="469" 
d="M43 0v81l252 335h-238v91h364v-81l-254 -335h254v-91h-378zM282 599h-86l-129 161h85l87 -97l87 97h85z" />
    <glyph glyph-name="longs" unicode="&#x17f;" horiz-adv-x="264" 
d="M183 0h-102v576q0 27 8.5 52.5t25.5 45t43 31.5t62 12h64v-87h-45q-29 0 -42.5 -15.5t-13.5 -43.5v-571z" />
    <glyph glyph-name="florin" unicode="&#x192;" horiz-adv-x="415" 
d="M326 630q-29 0 -45 -15.5t-21 -43.5l-32 -180h101v-78h-115l-91 -518h-102l91 518h-82v78h96l33 185q5 27 17.5 52.5t33 45t48.5 31.5t64 12h63v-87h-59z" />
    <glyph glyph-name="uni02BB" unicode="&#x2bb;" horiz-adv-x="268" 
d="M78 608v104l112 93v-197h-112z" />
    <glyph glyph-name="afii57929" unicode="&#x2bc;" horiz-adv-x="268" 
d="M78 516v196h112v-105z" />
    <glyph glyph-name="circumflex" unicode="&#x2c6;" horiz-adv-x="500" 
d="M338 599l-87 97l-87 -97h-85l129 161h86l129 -161h-85z" />
    <glyph glyph-name="caron" unicode="&#x2c7;" horiz-adv-x="500" 
d="M293 599h-86l-129 161h85l87 -97l87 97h85z" />
    <glyph glyph-name="breve" unicode="&#x2d8;" horiz-adv-x="500" 
d="M414 738q-5 -75 -49 -110t-115 -35q-72 0 -116 35t-49 110h72q5 -35 30 -52.5t63 -17.5q14 0 29.5 4t28.5 12.5t22.5 21.5t11.5 32h72v0z" />
    <glyph glyph-name="dotaccent" unicode="&#x2d9;" horiz-adv-x="500" 
d="M201 708h97v-97h-97v97z" />
    <glyph glyph-name="ring" unicode="&#x2da;" horiz-adv-x="500" 
d="M375 701q0 -26 -10 -48.5t-27 -39.5t-39.5 -27t-48.5 -10t-48.5 10t-39.5 27t-27 39.5t-10 48.5t10 48.5t27 39.5t39.5 27t48.5 10t48.5 -10t39.5 -27t27 -39.5t10 -48.5zM314 701q0 26 -19 44.5t-45 18.5t-45 -18.5t-19 -44.5t19 -44.5t45 -18.5t45 18.5t19 44.5z" />
    <glyph glyph-name="ogonek" unicode="&#x2db;" horiz-adv-x="500" 
d="M338 -211h-101l70 147h82z" />
    <glyph glyph-name="tilde" unicode="&#x2dc;" horiz-adv-x="537" 
d="M436 664q-34 -34 -57.5 -44.5t-46.5 -10.5q-22 0 -38.5 6t-36.5 17q-14 8 -27.5 13.5t-28.5 5.5q-13 0 -25 -4.5t-33 -25.5l-48 47q34 34 57 44.5t47 10.5q22 0 38.5 -6t36.5 -18q15 -9 27.5 -14t27.5 -5q12 0 25.5 5.5t33.5 25.5l48 -47v0z" />
    <glyph glyph-name="hungarumlaut" unicode="&#x2dd;" horiz-adv-x="500" 
d="M268 599l76 161h112l-111 -161h-77zM83 599l76 161h112l-111 -161h-77z" />
    <glyph glyph-name="uni037E" unicode="&#x37e;" horiz-adv-x="303" 
d="M106 -155v271h116v-176zM104 285v122h121v-122h-121z" />
    <glyph glyph-name="uni0394" unicode="&#x394;" horiz-adv-x="619" 
d="M5 0l261 712h87l260 -712h-608zM311 551l-162 -459h323z" />
    <glyph glyph-name="uni03A9" unicode="&#x3a9;" horiz-adv-x="647" 
d="M579 356q0 -66 -4 -114.5t-21 -85.5q-8 -16 -18 -30.5t-27 -29.5h70v-96h-207v87q24 11 41.5 25t31.5 35q8 12 13 29t8 41.5t4 57.5t1 77q0 53 -1.5 89.5t-6 62t-13 42.5t-21.5 31q-20 21 -47 33t-59 12t-59 -12t-47 -33q-13 -14 -21.5 -31t-13 -42.5t-6 -62t-1.5 -89.5
q0 -44 1.5 -77t4.5 -57.5t8 -41.5t13 -29q14 -21 31 -35t41 -25v-87h-207v96h71q-17 15 -27.5 29.5t-18.5 30.5q-17 37 -21 85.5t-4 114.5q0 56 1.5 98.5t8.5 76t21.5 61.5t40.5 54q35 35 80 53.5t104 18.5t104 -18.5t80 -53.5q26 -26 40.5 -54t21.5 -61.5t8.5 -76
t1.5 -98.5z" />
    <glyph glyph-name="uni03BC" unicode="&#x3bc;" horiz-adv-x="569" 
d="M387 0v51q-26 -29 -61 -43t-73 -14q-45 0 -75 25v-224h-102v712h102v-309q0 -59 30 -86t73 -27t73.5 27t30.5 86v309h102v-507h-100z" />
    <glyph glyph-name="pi" unicode="&#x3c0;" horiz-adv-x="572" 
d="M396 0v412h-214v-412h-101v507h415v-507h-100z" />
    <glyph glyph-name="uni2007" unicode="&#x2007;" 
 />
    <glyph glyph-name="uni2008" unicode="&#x2008;" horiz-adv-x="278" 
 />
    <glyph glyph-name="uni200B" unicode="&#x200b;" horiz-adv-x="0" 
 />
    <glyph glyph-name="endash" unicode="&#x2013;" 
d="M51 230v95h431v-95h-431z" />
    <glyph glyph-name="emdash" unicode="&#x2014;" horiz-adv-x="972" 
d="M67 231v97h838v-97h-838z" />
    <glyph glyph-name="quoteleft" unicode="&#x2018;" horiz-adv-x="268" 
d="M78 608v104l112 93v-197h-112z" />
    <glyph glyph-name="quoteright" unicode="&#x2019;" horiz-adv-x="268" 
d="M78 516v196h112v-105z" />
    <glyph glyph-name="quotesinglbase" unicode="&#x201a;" horiz-adv-x="267" 
d="M78 -92v197h112v-105z" />
    <glyph glyph-name="quotedblleft" unicode="&#x201c;" horiz-adv-x="459" 
d="M269 608v104l112 93v-197h-112zM78 608v104l112 93v-197h-112z" />
    <glyph glyph-name="quotedblright" unicode="&#x201d;" horiz-adv-x="459" 
d="M269 516v196h112v-105zM78 516v196h112v-105z" />
    <glyph glyph-name="quotedblbase" unicode="&#x201e;" horiz-adv-x="460" 
d="M269 -92v197h112v-105zM78 -92v197h112v-105z" />
    <glyph glyph-name="dagger" unicode="&#x2020;" horiz-adv-x="591" 
d="M346 427v-427h-102v427h-179v91h179v194h102v-194h180v-91h-180z" />
    <glyph glyph-name="daggerdbl" unicode="&#x2021;" horiz-adv-x="591" 
d="M346 -11v-194h-102v194h-179v92h179v346h-179v91h179v194h102v-194h180v-91h-180v-346h180v-92h-180z" />
    <glyph glyph-name="bullet" unicode="&#x2022;" horiz-adv-x="512" 
d="M419 334q0 -34 -13 -63.5t-35 -51.5t-51.5 -35t-63.5 -13t-63.5 13t-51.5 35t-35 51.5t-13 63.5t13 63.5t35 51.5t51.5 35t63.5 13t63.5 -13t51.5 -35t35 -51.5t13 -63.5z" />
    <glyph glyph-name="ellipsis" unicode="&#x2026;" horiz-adv-x="803" 
d="M608 0v117h117v-117h-117zM78 0v117h117v-117h-117zM343 0v117h117v-117h-117z" />
    <glyph glyph-name="perthousand" unicode="&#x2030;" horiz-adv-x="1196" 
d="M784 130q0 -32 -11 -57.5t-30 -43t-44.5 -27t-54.5 -9.5t-54.5 9.5t-44.5 27t-30 43t-11 57.5v101q0 32 11 57.5t30 43t44.5 27t54.5 9.5t54.5 -9.5t44.5 -27t30 -43t11 -57.5v-101zM1138 130q0 -32 -11 -57.5t-30 -43t-44.5 -27t-54.5 -9.5t-54.5 9.5t-44.5 27t-30 43
t-11 57.5v101q0 32 11 57.5t30 43t44.5 27t54.5 9.5t54.5 -9.5t44.5 -27t30 -43t11 -57.5v-101zM338 481q0 -32 -11 -57.5t-30 -43t-44.5 -26.5t-54.5 -9t-54.5 9t-44.5 26.5t-30 43t-11 57.5v101q0 32 11 57.5t30 43t44.5 27t54.5 9.5t54.5 -9.5t44.5 -27t30 -43t11 -57.5
v-101zM294 0h-82l336 712h81zM707 228q0 34 -15.5 53t-47.5 19t-47.5 -18.5t-15.5 -53.5v-95q0 -35 15.5 -53.5t47.5 -18.5t47.5 19t15.5 53v95zM1061 228q0 34 -15.5 53t-47.5 19t-47.5 -18.5t-15.5 -53.5v-95q0 -35 15.5 -53.5t47.5 -18.5t47.5 19t15.5 53v95zM261 579
q0 34 -15.5 53t-47.5 19t-47.5 -18.5t-15.5 -53.5v-95q0 -71 63 -71q32 0 47.5 18.5t15.5 52.5v95z" />
    <glyph glyph-name="guilsinglleft" unicode="&#x2039;" horiz-adv-x="339" 
d="M37 272l230 229v-123l-107 -106l107 -107v-123z" />
    <glyph glyph-name="guilsinglright" unicode="&#x203a;" horiz-adv-x="339" 
d="M72 42v123l108 107l-108 106v123l231 -229z" />
    <glyph glyph-name="fraction" unicode="&#x2044;" horiz-adv-x="197" 
d="M-28 0h-82l335 712h82z" />
    <glyph glyph-name="uni2070" unicode="&#x2070;" horiz-adv-x="325" 
d="M292 408q0 -30 -10.5 -54t-28 -40t-41 -24.5t-49.5 -8.5t-49.5 8.5t-41 24.5t-28 40t-10.5 54v181q0 30 10.5 54t28 40t41 24.5t49.5 8.5t49.5 -8.5t41 -24.5t28 -40t10.5 -54v-181zM216 588q0 27 -14.5 43.5t-38.5 16.5t-38.5 -16t-14.5 -44v-180q0 -27 14.5 -42.5
t38.5 -15.5t38.5 15.5t14.5 42.5v180z" />
    <glyph glyph-name="uni2074" unicode="&#x2074;" horiz-adv-x="325" 
d="M266 346v-61h-73v61h-174v71l146 295h84l-147 -295h91v83h73v-83h40v-71h-40z" />
    <glyph glyph-name="uni2075" unicode="&#x2075;" horiz-adv-x="325" 
d="M296 428q0 -36 -7.5 -62.5t-30.5 -49.5q-14 -14 -37.5 -24.5t-56.5 -10.5t-57 10t-38 24q-19 20 -25.5 41t-8.5 47h76q6 -53 53 -53q23 0 39 14q11 11 13.5 28t2.5 36q0 35 -11.5 56.5t-41.5 21.5q-23 0 -35.5 -10t-16.5 -25h-71v241h243v-69h-173v-94q24 21 65 21
q26 0 46 -7.5t33 -20.5q26 -26 32.5 -54.5t6.5 -59.5z" />
    <glyph glyph-name="uni2076" unicode="&#x2076;" horiz-adv-x="325" 
d="M295 414q0 -31 -10 -55.5t-28 -42t-42.5 -26.5t-52.5 -9t-52 9t-42 25.5t-28 41t-10 56.5q0 23 6.5 46.5t25.5 61.5l94 191h83l-89 -177q8 3 15.5 4t16.5 1q22 0 42 -8.5t36 -25t25.5 -39.5t9.5 -53zM218 414q0 29 -15 46.5t-41 17.5q-25 0 -40.5 -16.5t-15.5 -47.5
t15.5 -48t40.5 -17q24 0 40 17t16 48z" />
    <glyph glyph-name="uni2077" unicode="&#x2077;" horiz-adv-x="325" 
d="M162 285h-77l139 358h-123v-70h-71v139h271v-68z" />
    <glyph glyph-name="uni2078" unicode="&#x2078;" horiz-adv-x="325" 
d="M299 409q0 -31 -10.5 -55t-29 -40t-43.5 -24.5t-53 -8.5q-29 0 -53.5 8.5t-43.5 24.5t-29.5 40t-10.5 55q0 36 17 59.5t38 37.5q-19 13 -34 34.5t-15 53.5q0 28 10.5 50.5t28.5 38.5t41.5 24.5t50.5 8.5t50.5 -8.5t41.5 -24.5t28.5 -38.5t10.5 -50.5q0 -32 -14.5 -53.5
t-34.5 -34.5q21 -14 37.5 -37.5t16.5 -59.5zM223 410q0 26 -17 43.5t-43 17.5t-43 -17.5t-17 -43.5t17 -43t43 -17t43 17t17 43zM217 592q0 24 -15 39.5t-39 15.5t-39 -15.5t-15 -39.5q0 -23 15.5 -39t38.5 -16t38.5 16t15.5 39z" />
    <glyph glyph-name="uni2079" unicode="&#x2079;" horiz-adv-x="325" 
d="M296 584q0 -26 -8 -50.5t-25 -57.5l-93 -191h-83l89 177q-13 -5 -33 -5q-21 0 -41.5 8.5t-36 25t-25 39.5t-9.5 53q0 63 38 98t95 35q28 0 52 -9t42 -25.5t28 -41.5t10 -56zM220 584q0 29 -15.5 46t-40.5 17t-41 -17t-16 -46q0 -28 15.5 -46.5t41.5 -18.5q24 0 40 17.5
t16 47.5z" />
    <glyph glyph-name="uni2080" unicode="&#x2080;" horiz-adv-x="325" 
d="M292 -27q0 -30 -10.5 -54t-28 -40t-41 -24.5t-49.5 -8.5t-49.5 8.5t-41 24.5t-28 40t-10.5 54v181q0 30 10.5 54t28 40t41 24.5t49.5 8.5t49.5 -8.5t41 -24.5t28 -40t10.5 -54v-181zM216 153q0 27 -14.5 43.5t-38.5 16.5t-38.5 -16t-14.5 -44v-180q0 -27 14.5 -42.5
t38.5 -15.5t38.5 15.5t14.5 42.5v180z" />
    <glyph glyph-name="uni2081" unicode="&#x2081;" horiz-adv-x="325" 
d="M147 -150v341l-87 -76v87l87 75h77v-427h-77z" />
    <glyph glyph-name="uni2082" unicode="&#x2082;" horiz-adv-x="325" 
d="M37 -150v69l161 186q12 14 17 25.5t5 26.5q0 25 -13.5 40t-39.5 15q-20 0 -36.5 -11.5t-16.5 -43.5h-77q0 58 37 91t93 33q57 0 93.5 -33t36.5 -91q0 -31 -12 -51.5t-34 -46.5l-121 -140h167v-69h-260z" />
    <glyph glyph-name="uni2083" unicode="&#x2083;" horiz-adv-x="325" 
d="M302 -26q0 -32 -11 -56t-29.5 -40t-43 -24t-51.5 -8q-26 0 -50.5 7t-43.5 22.5t-31 39.5t-12 57h77q1 -29 19 -43t41 -14q26 0 42 16t16 45q0 27 -15.5 43.5t-45.5 16.5h-11v66h11q29 0 42.5 16t13.5 39q0 28 -16 42t-38 14q-23 0 -37.5 -13.5t-16.5 -38.5h-76
q2 57 39 89t91 32q28 0 52 -9t41 -25t27 -38.5t10 -49.5q0 -35 -14 -56.5t-36 -32.5q23 -12 39.5 -35t16.5 -62z" />
    <glyph glyph-name="uni2084" unicode="&#x2084;" horiz-adv-x="325" 
d="M266 -89v-61h-73v61h-174v71l146 295h84l-147 -295h91v83h73v-83h40v-71h-40z" />
    <glyph glyph-name="uni2085" unicode="&#x2085;" horiz-adv-x="325" 
d="M296 -7q0 -36 -7.5 -62.5t-30.5 -49.5q-14 -14 -37.5 -24.5t-56.5 -10.5t-57 10t-38 24q-19 20 -25.5 41t-8.5 47h76q6 -53 53 -53q23 0 39 14q11 11 13.5 28t2.5 36q0 35 -11.5 56.5t-41.5 21.5q-23 0 -35.5 -10t-16.5 -25h-71v241h243v-69h-173v-94q24 21 65 21
q26 0 46 -7.5t33 -20.5q26 -26 32.5 -54.5t6.5 -59.5z" />
    <glyph glyph-name="uni2086" unicode="&#x2086;" horiz-adv-x="325" 
d="M295 -21q0 -31 -10 -55.5t-28 -42t-42.5 -26.5t-52.5 -9t-52 9t-42 25.5t-28 41t-10 56.5q0 23 6.5 46.5t25.5 61.5l94 191h83l-89 -177q8 3 15.5 4t16.5 1q22 0 42 -8.5t36 -25t25.5 -39.5t9.5 -53zM218 -21q0 29 -15 46.5t-41 17.5q-25 0 -40.5 -16.5t-15.5 -47.5
t15.5 -48t40.5 -17q24 0 40 17t16 48z" />
    <glyph glyph-name="uni2087" unicode="&#x2087;" horiz-adv-x="325" 
d="M162 -150h-77l139 358h-123v-70h-71v139h271v-68z" />
    <glyph glyph-name="uni2088" unicode="&#x2088;" horiz-adv-x="325" 
d="M299 -26q0 -31 -10.5 -55t-29 -40t-43.5 -24.5t-53 -8.5q-29 0 -53.5 8.5t-43.5 24.5t-29.5 40t-10.5 55q0 36 17 59.5t38 37.5q-19 13 -34 34.5t-15 53.5q0 28 10.5 50.5t28.5 38.5t41.5 24.5t50.5 8.5t50.5 -8.5t41.5 -24.5t28.5 -38.5t10.5 -50.5q0 -32 -14.5 -53.5
t-34.5 -34.5q21 -14 37.5 -37.5t16.5 -59.5zM223 -25q0 26 -17 43.5t-43 17.5t-43 -17.5t-17 -43.5t17 -43t43 -17t43 17t17 43zM217 157q0 24 -15 39.5t-39 15.5t-39 -15.5t-15 -39.5q0 -23 15.5 -39t38.5 -16t38.5 16t15.5 39z" />
    <glyph glyph-name="uni2089" unicode="&#x2089;" horiz-adv-x="325" 
d="M296 149q0 -26 -8 -50.5t-25 -57.5l-93 -191h-83l89 177q-13 -5 -33 -5q-21 0 -41.5 8.5t-36 25t-25 39.5t-9.5 53q0 63 38 98t95 35q28 0 52 -9t42 -25.5t28 -41.5t10 -56zM220 149q0 29 -15.5 46t-40.5 17t-41 -17t-16 -46q0 -28 15.5 -46.5t41.5 -18.5q24 0 40 17.5
t16 47.5z" />
    <glyph glyph-name="Euro" unicode="&#x20ac;" horiz-adv-x="681" 
d="M621 213q-19 -106 -88 -162.5t-167 -56.5q-57 0 -103 19t-81 54q-36 36 -50.5 77t-18.5 104h-70v67h67v86h-67v67h70q2 30 6 55t12 46t20.5 39.5t30.5 36.5q35 35 81 54t103 19q99 0 167.5 -56.5t87.5 -162.5h-110q-13 55 -49 89t-96 34q-32 0 -58.5 -12t-46.5 -32
q-10 -10 -16.5 -20.5t-11 -23.5t-7 -29t-3.5 -37h183v-67h-188v-86h188v-67h-183q2 -45 10 -69.5t28 -44.5t46.5 -32t58.5 -12q60 0 96.5 34t49.5 89h109z" />
    <glyph glyph-name="uni20B4" unicode="&#x20b4;" horiz-adv-x="670" 
d="M627 468v-67h-79q-10 -16 -23 -28q-48 -45 -135 -57l-7 -1h244v-67h-418q-9 -21 -9 -48q0 -52 38.5 -80.5t108.5 -28.5q55 0 99 14.5t83 53.5l72 -71q-51 -52 -111 -73t-141 -21q-56 0 -103 14t-81 41t-53 66t-19 88q0 24 3 45h-53v67h79q6 9 13 17.5t16 16.5
q22 20 50.5 32t75.5 20h-234v67h418q11 20 11 45q0 48 -33.5 79.5t-96.5 31.5q-45 0 -83.5 -11.5t-71.5 -43.5l-69 68q46 43 98 62t123 19q55 0 99.5 -15t75 -43t47 -66.5t16.5 -84.5q0 -22 -3 -41h53z" />
    <glyph glyph-name="afii61352" unicode="&#x2116;" horiz-adv-x="956" 
d="M469 0l-293 513v-513h-101v712h92l292 -512v512h102v-712h-92zM622 246v76h280v-76h-280zM825 539q0 29 -3 54t-17 39q-16 16 -42 16t-42 -16q-14 -14 -17 -39t-3 -54t3 -53.5t17 -38.5q17 -17 42 -17q14 0 24 4.5t18 12.5q14 14 17 38.5t3 53.5zM907 537
q0 -46 -8.5 -80.5t-32.5 -58.5q-17 -17 -43.5 -29t-59.5 -12t-59 12t-43 29q-24 24 -32.5 59t-8.5 80q0 46 8 80t33 59q17 17 43 29t59 12t59.5 -12t43.5 -29q23 -24 32 -59t9 -80z" />
    <glyph glyph-name="trademark" unicode="&#x2122;" horiz-adv-x="883" 
d="M745 285v279l-90 -179h-71l-90 179v-279h-77v427h77l125 -243l126 243h77v-427h-77zM231 643v-358h-76v358h-114v69h305v-69h-115z" />
    <glyph glyph-name="Omega" unicode="&#x2126;" horiz-adv-x="647" 
d="M579 356q0 -66 -4 -114.5t-21 -85.5q-8 -16 -18 -30.5t-27 -29.5h70v-96h-207v87q24 11 41.5 25t31.5 35q8 12 13 29t8 41.5t4 57.5t1 77q0 53 -1.5 89.5t-6 62t-13 42.5t-21.5 31q-20 21 -47 33t-59 12t-59 -12t-47 -33q-13 -14 -21.5 -31t-13 -42.5t-6 -62t-1.5 -89.5
q0 -44 1.5 -77t4.5 -57.5t8 -41.5t13 -29q14 -21 31 -35t41 -25v-87h-207v96h71q-17 15 -27.5 29.5t-18.5 30.5q-17 37 -21 85.5t-4 114.5q0 56 1.5 98.5t8.5 76t21.5 61.5t40.5 54q35 35 80 53.5t104 18.5t104 -18.5t80 -53.5q26 -26 40.5 -54t21.5 -61.5t8.5 -76
t1.5 -98.5z" />
    <glyph glyph-name="uni2150" unicode="&#x2150;" horiz-adv-x="847" 
d="M147 285v341l-87 -76v87l87 75h77v-427h-77zM297 0h-82l335 712h82zM684 0h-77l139 358h-123v-70h-71v139h271v-68z" />
    <glyph glyph-name="uni2151" unicode="&#x2151;" horiz-adv-x="847" 
d="M147 285v341l-87 -76v87l87 75h77v-427h-77zM297 0h-82l335 712h82zM818 299q0 -26 -8 -50.5t-25 -57.5l-93 -191h-83l89 177q-13 -5 -33 -5q-21 0 -41.5 8.5t-36 25t-25 39.5t-9.5 53q0 63 38 98t95 35q28 0 52 -9t42 -25.5t28 -41.5t10 -56zM742 299q0 29 -15.5 46
t-40.5 17t-41 -17t-16 -46q0 -28 15.5 -46.5t41.5 -18.5q24 0 40 17.5t16 47.5z" />
    <glyph glyph-name="uni2152" unicode="&#x2152;" horiz-adv-x="1172" 
d="M147 285v341l-87 -76v87l87 75h77v-427h-77zM297 0h-82l335 712h82zM669 0v341l-87 -76v87l87 75h77v-427h-77zM1139 123q0 -30 -10.5 -54t-28 -40t-41 -24.5t-49.5 -8.5t-49.5 8.5t-41 24.5t-28 40t-10.5 54v181q0 30 10.5 54t28 40t41 24.5t49.5 8.5t49.5 -8.5
t41 -24.5t28 -40t10.5 -54v-181zM1063 303q0 27 -14.5 43.5t-38.5 16.5t-38.5 -16t-14.5 -44v-180q0 -27 14.5 -42.5t38.5 -15.5t38.5 15.5t14.5 42.5v180z" />
    <glyph glyph-name="onethird" unicode="&#x2153;" horiz-adv-x="847" 
d="M147 285v341l-87 -76v87l87 75h77v-427h-77zM297 0h-82l335 712h82zM824 124q0 -32 -11 -56t-29.5 -40t-43 -24t-51.5 -8q-26 0 -50.5 7t-43.5 22.5t-31 39.5t-12 57h77q1 -29 19 -43t41 -14q26 0 42 16t16 45q0 27 -15.5 43.5t-45.5 16.5h-11v66h11q29 0 42.5 16
t13.5 39q0 28 -16 42t-38 14q-23 0 -37.5 -13.5t-16.5 -38.5h-76q2 57 39 89t91 32q28 0 52 -9t41 -25t27 -38.5t10 -49.5q0 -35 -14 -56.5t-36 -32.5q23 -12 39.5 -35t16.5 -62z" />
    <glyph glyph-name="twothirds" unicode="&#x2154;" horiz-adv-x="847" 
d="M37 285v69l161 186q12 14 17 25.5t5 26.5q0 25 -13.5 40t-39.5 15q-20 0 -36.5 -11.5t-16.5 -43.5h-77q0 58 37 91t93 33q57 0 93.5 -33t36.5 -91q0 -31 -12 -51.5t-34 -46.5l-121 -140h167v-69h-260zM297 0h-82l335 712h82zM824 124q0 -32 -11 -56t-29.5 -40t-43 -24
t-51.5 -8q-26 0 -50.5 7t-43.5 22.5t-31 39.5t-12 57h77q1 -29 19 -43t41 -14q26 0 42 16t16 45q0 27 -15.5 43.5t-45.5 16.5h-11v66h11q29 0 42.5 16t13.5 39q0 28 -16 42t-38 14q-23 0 -37.5 -13.5t-16.5 -38.5h-76q2 57 39 89t91 32q28 0 52 -9t41 -25t27 -38.5t10 -49.5
q0 -35 -14 -56.5t-36 -32.5q23 -12 39.5 -35t16.5 -62z" />
    <glyph glyph-name="uni2155" unicode="&#x2155;" horiz-adv-x="847" 
d="M147 285v341l-87 -76v87l87 75h77v-427h-77zM297 0h-82l335 712h82zM818 143q0 -36 -7.5 -62.5t-30.5 -49.5q-14 -14 -37.5 -24.5t-56.5 -10.5t-57 10t-38 24q-19 20 -25.5 41t-8.5 47h76q6 -53 53 -53q23 0 39 14q11 11 13.5 28t2.5 36q0 35 -11.5 56.5t-41.5 21.5
q-23 0 -35.5 -10t-16.5 -25h-71v241h243v-69h-173v-94q24 21 65 21q26 0 46 -7.5t33 -20.5q26 -26 32.5 -54.5t6.5 -59.5z" />
    <glyph glyph-name="uni2156" unicode="&#x2156;" horiz-adv-x="847" 
d="M37 285v69l161 186q12 14 17 25.5t5 26.5q0 25 -13.5 40t-39.5 15q-20 0 -36.5 -11.5t-16.5 -43.5h-77q0 58 37 91t93 33q57 0 93.5 -33t36.5 -91q0 -31 -12 -51.5t-34 -46.5l-121 -140h167v-69h-260zM297 0h-82l335 712h82zM818 143q0 -36 -7.5 -62.5t-30.5 -49.5
q-14 -14 -37.5 -24.5t-56.5 -10.5t-57 10t-38 24q-19 20 -25.5 41t-8.5 47h76q6 -53 53 -53q23 0 39 14q11 11 13.5 28t2.5 36q0 35 -11.5 56.5t-41.5 21.5q-23 0 -35.5 -10t-16.5 -25h-71v241h243v-69h-173v-94q24 21 65 21q26 0 46 -7.5t33 -20.5q26 -26 32.5 -54.5
t6.5 -59.5z" />
    <glyph glyph-name="uni2157" unicode="&#x2157;" horiz-adv-x="847" 
d="M302 409q0 -32 -11 -56t-29.5 -40t-43 -24t-51.5 -8q-26 0 -50.5 7t-43.5 22.5t-31 39.5t-12 57h77q1 -29 19 -43t41 -14q26 0 42 16t16 45q0 27 -15.5 43.5t-45.5 16.5h-11v66h11q29 0 42.5 16t13.5 39q0 28 -16 42t-38 14q-23 0 -37.5 -13.5t-16.5 -38.5h-76
q2 57 39 89t91 32q28 0 52 -9t41 -25t27 -38.5t10 -49.5q0 -35 -14 -56.5t-36 -32.5q23 -12 39.5 -35t16.5 -62zM297 0h-82l335 712h82zM818 143q0 -36 -7.5 -62.5t-30.5 -49.5q-14 -14 -37.5 -24.5t-56.5 -10.5t-57 10t-38 24q-19 20 -25.5 41t-8.5 47h76q6 -53 53 -53
q23 0 39 14q11 11 13.5 28t2.5 36q0 35 -11.5 56.5t-41.5 21.5q-23 0 -35.5 -10t-16.5 -25h-71v241h243v-69h-173v-94q24 21 65 21q26 0 46 -7.5t33 -20.5q26 -26 32.5 -54.5t6.5 -59.5z" />
    <glyph glyph-name="uni2158" unicode="&#x2158;" horiz-adv-x="847" 
d="M266 346v-61h-73v61h-174v71l146 295h84l-147 -295h91v83h73v-83h40v-71h-40zM297 0h-82l335 712h82zM818 143q0 -36 -7.5 -62.5t-30.5 -49.5q-14 -14 -37.5 -24.5t-56.5 -10.5t-57 10t-38 24q-19 20 -25.5 41t-8.5 47h76q6 -53 53 -53q23 0 39 14q11 11 13.5 28t2.5 36
q0 35 -11.5 56.5t-41.5 21.5q-23 0 -35.5 -10t-16.5 -25h-71v241h243v-69h-173v-94q24 21 65 21q26 0 46 -7.5t33 -20.5q26 -26 32.5 -54.5t6.5 -59.5z" />
    <glyph glyph-name="uni2159" unicode="&#x2159;" horiz-adv-x="847" 
d="M147 285v341l-87 -76v87l87 75h77v-427h-77zM297 0h-82l335 712h82zM817 129q0 -31 -10 -55.5t-28 -42t-42.5 -26.5t-52.5 -9t-52 9t-42 25.5t-28 41t-10 56.5q0 23 6.5 46.5t25.5 61.5l94 191h83l-89 -177q8 3 15.5 4t16.5 1q22 0 42 -8.5t36 -25t25.5 -39.5t9.5 -53z
M740 129q0 29 -15 46.5t-41 17.5q-25 0 -40.5 -16.5t-15.5 -47.5t15.5 -48t40.5 -17q24 0 40 17t16 48z" />
    <glyph glyph-name="uni215A" unicode="&#x215a;" horiz-adv-x="847" 
d="M296 428q0 -36 -7.5 -62.5t-30.5 -49.5q-14 -14 -37.5 -24.5t-56.5 -10.5t-57 10t-38 24q-19 20 -25.5 41t-8.5 47h76q6 -53 53 -53q23 0 39 14q11 11 13.5 28t2.5 36q0 35 -11.5 56.5t-41.5 21.5q-23 0 -35.5 -10t-16.5 -25h-71v241h243v-69h-173v-94q24 21 65 21
q26 0 46 -7.5t33 -20.5q26 -26 32.5 -54.5t6.5 -59.5zM297 0h-82l335 712h82zM817 129q0 -31 -10 -55.5t-28 -42t-42.5 -26.5t-52.5 -9t-52 9t-42 25.5t-28 41t-10 56.5q0 23 6.5 46.5t25.5 61.5l94 191h83l-89 -177q8 3 15.5 4t16.5 1q22 0 42 -8.5t36 -25t25.5 -39.5
t9.5 -53zM740 129q0 29 -15 46.5t-41 17.5q-25 0 -40.5 -16.5t-15.5 -47.5t15.5 -48t40.5 -17q24 0 40 17t16 48z" />
    <glyph glyph-name="oneeighth" unicode="&#x215b;" horiz-adv-x="847" 
d="M147 285v341l-87 -76v87l87 75h77v-427h-77zM297 0h-82l335 712h82zM821 124q0 -31 -10.5 -55t-29 -40t-43.5 -24.5t-53 -8.5q-29 0 -53.5 8.5t-43.5 24.5t-29.5 40t-10.5 55q0 36 17 59.5t38 37.5q-19 13 -34 34.5t-15 53.5q0 28 10.5 50.5t28.5 38.5t41.5 24.5
t50.5 8.5t50.5 -8.5t41.5 -24.5t28.5 -38.5t10.5 -50.5q0 -32 -14.5 -53.5t-34.5 -34.5q21 -14 37.5 -37.5t16.5 -59.5zM745 125q0 26 -17 43.5t-43 17.5t-43 -17.5t-17 -43.5t17 -43t43 -17t43 17t17 43zM739 307q0 24 -15 39.5t-39 15.5t-39 -15.5t-15 -39.5
q0 -23 15.5 -39t38.5 -16t38.5 16t15.5 39z" />
    <glyph glyph-name="threeeighths" unicode="&#x215c;" horiz-adv-x="847" 
d="M302 409q0 -32 -11 -56t-29.5 -40t-43 -24t-51.5 -8q-26 0 -50.5 7t-43.5 22.5t-31 39.5t-12 57h77q1 -29 19 -43t41 -14q26 0 42 16t16 45q0 27 -15.5 43.5t-45.5 16.5h-11v66h11q29 0 42.5 16t13.5 39q0 28 -16 42t-38 14q-23 0 -37.5 -13.5t-16.5 -38.5h-76
q2 57 39 89t91 32q28 0 52 -9t41 -25t27 -38.5t10 -49.5q0 -35 -14 -56.5t-36 -32.5q23 -12 39.5 -35t16.5 -62zM297 0h-82l335 712h82zM821 124q0 -31 -10.5 -55t-29 -40t-43.5 -24.5t-53 -8.5q-29 0 -53.5 8.5t-43.5 24.5t-29.5 40t-10.5 55q0 36 17 59.5t38 37.5
q-19 13 -34 34.5t-15 53.5q0 28 10.5 50.5t28.5 38.5t41.5 24.5t50.5 8.5t50.5 -8.5t41.5 -24.5t28.5 -38.5t10.5 -50.5q0 -32 -14.5 -53.5t-34.5 -34.5q21 -14 37.5 -37.5t16.5 -59.5zM745 125q0 26 -17 43.5t-43 17.5t-43 -17.5t-17 -43.5t17 -43t43 -17t43 17t17 43z
M739 307q0 24 -15 39.5t-39 15.5t-39 -15.5t-15 -39.5q0 -23 15.5 -39t38.5 -16t38.5 16t15.5 39z" />
    <glyph glyph-name="fiveeighths" unicode="&#x215d;" horiz-adv-x="847" 
d="M296 428q0 -36 -7.5 -62.5t-30.5 -49.5q-14 -14 -37.5 -24.5t-56.5 -10.5t-57 10t-38 24q-19 20 -25.5 41t-8.5 47h76q6 -53 53 -53q23 0 39 14q11 11 13.5 28t2.5 36q0 35 -11.5 56.5t-41.5 21.5q-23 0 -35.5 -10t-16.5 -25h-71v241h243v-69h-173v-94q24 21 65 21
q26 0 46 -7.5t33 -20.5q26 -26 32.5 -54.5t6.5 -59.5zM297 0h-82l335 712h82zM821 124q0 -31 -10.5 -55t-29 -40t-43.5 -24.5t-53 -8.5q-29 0 -53.5 8.5t-43.5 24.5t-29.5 40t-10.5 55q0 36 17 59.5t38 37.5q-19 13 -34 34.5t-15 53.5q0 28 10.5 50.5t28.5 38.5t41.5 24.5
t50.5 8.5t50.5 -8.5t41.5 -24.5t28.5 -38.5t10.5 -50.5q0 -32 -14.5 -53.5t-34.5 -34.5q21 -14 37.5 -37.5t16.5 -59.5zM745 125q0 26 -17 43.5t-43 17.5t-43 -17.5t-17 -43.5t17 -43t43 -17t43 17t17 43zM739 307q0 24 -15 39.5t-39 15.5t-39 -15.5t-15 -39.5
q0 -23 15.5 -39t38.5 -16t38.5 16t15.5 39z" />
    <glyph glyph-name="seveneighths" unicode="&#x215e;" horiz-adv-x="847" 
d="M162 285h-77l139 358h-123v-70h-71v139h271v-68zM297 0h-82l335 712h82zM821 124q0 -31 -10.5 -55t-29 -40t-43.5 -24.5t-53 -8.5q-29 0 -53.5 8.5t-43.5 24.5t-29.5 40t-10.5 55q0 36 17 59.5t38 37.5q-19 13 -34 34.5t-15 53.5q0 28 10.5 50.5t28.5 38.5t41.5 24.5
t50.5 8.5t50.5 -8.5t41.5 -24.5t28.5 -38.5t10.5 -50.5q0 -32 -14.5 -53.5t-34.5 -34.5q21 -14 37.5 -37.5t16.5 -59.5zM745 125q0 26 -17 43.5t-43 17.5t-43 -17.5t-17 -43.5t17 -43t43 -17t43 17t17 43zM739 307q0 24 -15 39.5t-39 15.5t-39 -15.5t-15 -39.5
q0 -23 15.5 -39t38.5 -16t38.5 16t15.5 39z" />
    <glyph glyph-name="uni215F" unicode="&#x215f;" horiz-adv-x="522" 
d="M147 285v341l-87 -76v87l87 75h77v-427h-77zM297 0h-82l335 712h82z" />
    <glyph glyph-name="uni2189" unicode="&#x2189;" horiz-adv-x="847" 
d="M292 408q0 -30 -10.5 -54t-28 -40t-41 -24.5t-49.5 -8.5t-49.5 8.5t-41 24.5t-28 40t-10.5 54v181q0 30 10.5 54t28 40t41 24.5t49.5 8.5t49.5 -8.5t41 -24.5t28 -40t10.5 -54v-181zM216 588q0 27 -14.5 43.5t-38.5 16.5t-38.5 -16t-14.5 -44v-180q0 -27 14.5 -42.5
t38.5 -15.5t38.5 15.5t14.5 42.5v180zM297 0h-82l335 712h82zM824 124q0 -32 -11 -56t-29.5 -40t-43 -24t-51.5 -8q-26 0 -50.5 7t-43.5 22.5t-31 39.5t-12 57h77q1 -29 19 -43t41 -14q26 0 42 16t16 45q0 27 -15.5 43.5t-45.5 16.5h-11v66h11q29 0 42.5 16t13.5 39
q0 28 -16 42t-38 14q-23 0 -37.5 -13.5t-16.5 -38.5h-76q2 57 39 89t91 32q28 0 52 -9t41 -25t27 -38.5t10 -49.5q0 -35 -14 -56.5t-36 -32.5q23 -12 39.5 -35t16.5 -62z" />
    <glyph glyph-name="arrowleft" unicode="&#x2190;" horiz-adv-x="1027" 
d="M52 277l392 392h130l-345 -343h745v-97h-745l345 -343h-130z" />
    <glyph glyph-name="arrowup" unicode="&#x2191;" horiz-adv-x="1027" 
d="M512 739l392 -392v-130l-343 345v-745h-97v745l-343 -345v130z" />
    <glyph glyph-name="arrowright" unicode="&#x2192;" horiz-adv-x="1027" 
d="M798 230h-745v96h745l-345 344h130l392 -392l-392 -392h-130z" />
    <glyph glyph-name="arrowdown" unicode="&#x2193;" horiz-adv-x="1027" 
d="M514 -183l-392 392v130l343 -345v745h97v-745l343 345v-130z" />
    <glyph glyph-name="uni2196" unicode="&#x2196;" horiz-adv-x="1027" 
d="M805 -82l-527 526l1 -487l-92 92v554h555l92 -92l-487 1l526 -526z" />
    <glyph glyph-name="uni2197" unicode="&#x2197;" horiz-adv-x="1027" 
d="M748 -43l1 488l-528 -527l-68 68l527 527l-487 -2l92 92h554v-554z" />
    <glyph glyph-name="uni2198" unicode="&#x2198;" horiz-adv-x="1027" 
d="M292 -65l-92 91l487 -1l-527 527l69 69l527 -527l-2 487l92 -93v-553h-554z" />
    <glyph glyph-name="uni2199" unicode="&#x2199;" horiz-adv-x="1027" 
d="M339 25l487 1l-92 -91h-555v554l92 92v-487l526 527l68 -70z" />
    <glyph glyph-name="partialdiff" unicode="&#x2202;" horiz-adv-x="549" 
d="M468 249q0 -63 -11 -111t-46 -85q-24 -26 -60 -42.5t-86 -16.5t-86.5 16.5t-60.5 42.5q-35 37 -46 85t-11 111q0 66 11 114t46 84q22 23 56.5 40t84.5 17q29 0 56.5 -8t50.5 -34v47q0 21 -6 43t-20.5 39.5t-37 28.5t-55.5 11q-38 0 -62 -10.5t-48 -33.5l-64 64
q40 37 80 52t98 15q54 0 94.5 -17t68 -47t41 -71.5t13.5 -91.5v-242zM366 249q0 40 -5 76t-27 59q-14 14 -31 21.5t-38 7.5q-41 0 -70 -29q-22 -23 -27 -59t-5 -76t5 -76t27 -59q29 -29 70 -29q21 0 38 7.5t31 21.5q22 23 27 59t5 76z" />
    <glyph glyph-name="Delta" unicode="&#x2206;" horiz-adv-x="619" 
d="M5 0l261 712h87l260 -712h-608zM311 551l-162 -459h323z" />
    <glyph glyph-name="product" unicode="&#x220f;" horiz-adv-x="690" 
d="M489 -205v869h-288v-869h-108v965h505v-965h-109z" />
    <glyph glyph-name="summation" unicode="&#x2211;" horiz-adv-x="552" 
d="M48 -205v88l195 406l-193 383v88h455v-97h-329l161 -325v-100l-164 -346h335v-97h-460z" />
    <glyph glyph-name="minus" unicode="&#x2212;" 
d="M51 230v95h431v-95h-431z" />
    <glyph glyph-name="uni2219" unicode="&#x2219;" 
d="M429 334q0 -34 -13 -63.5t-35 -51.5t-51.5 -35t-63.5 -13t-63.5 13t-51.5 35t-35 51.5t-13 63.5t13 63.5t35 51.5t51.5 35t63.5 13t63.5 -13t51.5 -35t35 -51.5t13 -63.5z" />
    <glyph glyph-name="radical" unicode="&#x221a;" horiz-adv-x="580" 
d="M459 615l-202 -615h-84l-168 507h111l99 -313l163 518h172v-97h-91z" />
    <glyph glyph-name="infinity" unicode="&#x221e;" horiz-adv-x="830" 
d="M769 276q0 -37 -11.5 -68.5t-34 -55t-55 -37t-74.5 -13.5q-53 0 -95 25t-84 74q-42 -49 -84.5 -74.5t-94.5 -25.5q-42 0 -74.5 13.5t-55 37t-34 55.5t-11.5 69t11.5 69t34 55.5t55 37t74.5 13.5q51 0 94 -25.5t85 -74.5q42 49 83.5 74.5t95.5 25.5q42 0 74.5 -13.5
t55 -37t34 -55.5t11.5 -69zM347 274q-29 34 -53.5 56.5t-56.5 22.5q-33 0 -55.5 -21.5t-22.5 -57.5t22.5 -57.5t55.5 -21.5q32 0 56.5 22.5t53.5 56.5zM671 274q0 36 -23 57t-56 21q-32 0 -56 -22t-53 -56q29 -34 53 -56.5t56 -22.5q33 0 56 21.5t23 57.5z" />
    <glyph glyph-name="integral" unicode="&#x222b;" horiz-adv-x="433" 
d="M341 633q-72 0 -72 -74v-599q0 -76 -44.5 -119t-119.5 -43h-57v87h44q71 0 71 74v599q0 76 45 119t120 43h57v-87h-44z" />
    <glyph glyph-name="approxequal" unicode="&#x2248;" horiz-adv-x="574" 
d="M531 380q-22 -22 -40.5 -37t-36 -24t-34.5 -12.5t-37 -3.5q-29 0 -55 8.5t-57 23.5q-21 11 -39.5 17.5t-39.5 6.5t-39 -7.5t-46 -35.5l-64 64q22 22 40.5 37t35.5 24t34 12.5t37 3.5q29 0 54.5 -8.5t56.5 -23.5q21 -11 40 -17.5t40 -6.5q10 0 19.5 1.5t19 6t21 13
t25.5 22.5zM531 178q-22 -22 -40.5 -37t-35.5 -24t-34 -13t-37 -4q-29 0 -55 9t-57 24q-21 11 -39.5 17.5t-39.5 6.5t-39.5 -8t-46.5 -36l-64 64q22 22 40.5 37t35.5 24t34.5 13t37.5 4q29 0 54.5 -9t56.5 -24q21 -11 40 -17.5t40 -6.5q10 0 19.5 1.5t19 6t21 13.5t25.5 23z
" />
    <glyph glyph-name="notequal" unicode="&#x2260;" horiz-adv-x="571" 
d="M217 133l-103 -120l-63 51l61 69h-61v95h138l88 99h-226v95h302l104 120l63 -51l-61 -69h61v-95h-138l-88 -99h226v-95h-303z" />
    <glyph glyph-name="lessequal" unicode="&#x2264;" 
d="M82 333v90l369 178v-108l-245 -115l245 -115v-108zM82 148v108l369 -177v-108z" />
    <glyph glyph-name="greaterequal" unicode="&#x2265;" 
d="M82 155v108l245 115l-245 115v108l369 -178v-90zM82 -29v108l369 177v-108z" />
    <glyph glyph-name="dotmath" unicode="&#x22c5;" 
d="M205 217v122h122v-122h-122z" />
    <glyph glyph-name="lozenge" unicode="&#x25ca;" horiz-adv-x="642" 
d="M321 -19l-260 365l260 365l261 -365zM321 553l-146 -207l146 -208l146 208z" />
    <glyph glyph-name="uniFEFF" unicode="&#xfeff;" horiz-adv-x="0" 
 />
    <glyph glyph-name="zero.osf" horiz-adv-x="534" 
d="M473 198q0 -48 -16.5 -85.5t-44.5 -64t-65.5 -40.5t-79.5 -14t-79.5 14t-65.5 40.5t-44.5 64t-16.5 85.5v201q0 48 16.5 85.5t44.5 64t65.5 40.5t79.5 14t79.5 -14t65.5 -40.5t44.5 -64t16.5 -85.5v-201zM371 396q0 52 -27.5 84t-76.5 32t-76.5 -32t-27.5 -84v-195
q0 -52 27.5 -84t76.5 -32t76.5 32t27.5 84v195z" />
    <glyph glyph-name="one.osf" horiz-adv-x="407" 
d="M192 0v486l-140 -122v113l140 120h102v-597h-102z" />
    <glyph glyph-name="two.osf" horiz-adv-x="528" 
d="M42 0v91l242 220q32 29 50.5 59t18.5 62q0 43 -28.5 71.5t-74.5 28.5q-21 0 -40 -7t-33.5 -20t-23 -33t-8.5 -45h-102q0 44 16 80t44 62t65.5 40t81.5 14q45 0 82.5 -14t65 -39.5t42.5 -60t15 -76.5q0 -28 -8.5 -52t-23.5 -46.5t-35 -44t-43 -43.5l-165 -156h291v-91
h-429z" />
    <glyph glyph-name="three.osf" horiz-adv-x="526" 
d="M471 84q0 -51 -17.5 -90t-47 -65t-69 -39t-84.5 -13q-43 0 -81.5 11.5t-68.5 36t-48.5 62.5t-19.5 90h102q1 -29 11.5 -49t26 -33.5t36 -19.5t42.5 -6q50 0 83 30.5t33 87.5q0 54 -29.5 85.5t-89.5 31.5h-17v89h17q56 0 82 29.5t26 78.5q0 54 -30.5 82t-74.5 28
q-47 0 -75 -27t-32 -75h-102q2 45 19 81t45 61t65 38.5t80 13.5q45 0 83 -14.5t65.5 -41t43 -63t15.5 -80.5q0 -57 -23.5 -94.5t-65.5 -57.5q46 -20 73 -61t27 -107z" />
    <glyph glyph-name="four.osf" horiz-adv-x="566" 
d="M441 30v-153h-98v153h-305v95l253 510h109l-253 -510h196v176h98v-176h85v-95h-85z" />
    <glyph glyph-name="five.osf" horiz-adv-x="535" 
d="M477 123q0 -57 -10.5 -103.5t-49.5 -85.5q-24 -24 -61 -40t-89 -16q-51 0 -90 16t-62 39q-29 29 -40 63.5t-14 72.5h102q6 -48 31 -73.5t73 -25.5q46 0 74 28q23 23 28.5 56t5.5 69q0 32 -4.5 59t-16.5 47t-32 31.5t-51 11.5q-44 0 -68.5 -19t-32.5 -45h-93v389h384v-91
h-292v-188q18 19 48.5 30t69.5 11q42 0 74 -12t54 -34q20 -20 32.5 -43t19 -47t8.5 -49.5t2 -50.5z" />
    <glyph glyph-name="six.osf" horiz-adv-x="538" 
d="M492 223q0 -52 -16.5 -94.5t-46 -72.5t-70.5 -46t-90 -16t-90 15.5t-70.5 44t-46 70t-16.5 94.5q0 54 15 101.5t46 102.5l171 306h109l-175 -303q19 10 38 13.5t44 3.5q42 0 78.5 -15t63 -43.5t41.5 -69t15 -91.5zM390 220q0 29 -8 54.5t-24 44t-38.5 29.5t-50.5 11
q-54 0 -87.5 -37.5t-33.5 -101.5t33.5 -101t87.5 -37t87.5 37t33.5 101z" />
    <glyph glyph-name="seven.osf" horiz-adv-x="528" 
d="M217 -120h-109l276 626h-241v-112h-98v203h448v-91z" />
    <glyph glyph-name="eight.osf" horiz-adv-x="549" 
d="M494 201q0 -48 -17 -86.5t-47 -65.5t-70 -41t-86 -14t-86 14t-69.5 41t-46.5 65.5t-17 86.5q0 32 8.5 58t22 46.5t31 36t36.5 26.5q-35 21 -60.5 58.5t-25.5 94.5q0 45 16 81t44 62t65.5 40t81.5 14q43 0 81 -14t66.5 -40t44.5 -62t16 -81q0 -57 -25.5 -94.5t-60.5 -58.5
q19 -11 36.5 -26.5t31 -36t22 -46.5t8.5 -58zM391 203q0 25 -9 46.5t-25 37.5t-37 25.5t-46 9.5t-46.5 -9.5t-37 -25.5t-24.5 -37.5t-9 -46.5t9 -46.5t24.5 -37.5t37 -25t46.5 -9t46 9t37 25t25 37.5t9 46.5zM380 518q0 47 -29.5 78t-76.5 31t-76 -31t-29 -78q0 -48 29 -78
t76 -30t76.5 30t29.5 78z" />
    <glyph glyph-name="nine.osf" horiz-adv-x="538" 
d="M492 379q0 -54 -14.5 -101.5t-45.5 -102.5l-172 -306h-109l175 303q-19 -10 -37.5 -13.5t-43.5 -3.5q-42 0 -78.5 15t-63.5 43.5t-42 69t-15 91.5q0 52 16.5 94.5t46 72.5t70.5 46t90 16t90 -15.5t70.5 -44t46 -70.5t16.5 -94zM390 377q0 64 -33.5 101t-87.5 37
t-87.5 -37t-33.5 -101q0 -29 8 -54.5t24 -44.5t38 -29.5t51 -10.5q54 0 87.5 37.5t33.5 101.5z" />
    <glyph glyph-name="grave.lc" horiz-adv-x="537" 
d="M236 599l-111 162h113l75 -162h-77z" />
    <glyph glyph-name="dieresis.lc" horiz-adv-x="537" 
d="M330 604v108h92v-108h-92zM114 604v108h92v-108h-92z" />
    <glyph glyph-name="acute.lc" horiz-adv-x="537" 
d="M293 599h-77l75 162h113z" />
    <glyph glyph-name="circumflex.lc" horiz-adv-x="537" 
d="M355 599l-87 97l-87 -97h-85l129 161h86l129 -161h-85z" />
    <glyph glyph-name="caron.lc" horiz-adv-x="469" 
d="M282 599h-86l-129 161h85l87 -97l87 97h85z" />
    <glyph glyph-name="ring.lc" horiz-adv-x="530" 
d="M382 701q0 -26 -10 -48.5t-27 -39.5t-39.5 -27t-48.5 -10t-48.5 10t-39.5 27t-27 39.5t-10 48.5t10 48.5t27 39.5t39.5 27t48.5 10t48.5 -10t39.5 -27t27 -39.5t10 -48.5zM321 701q0 26 -19 44.5t-45 18.5t-45 -18.5t-19 -44.5t19 -44.5t45 -18.5t45 18.5t19 44.5z" />
    <glyph glyph-name="tilde.lc" horiz-adv-x="537" 
d="M436 664q-34 -34 -57.5 -44.5t-46.5 -10.5q-22 0 -38.5 6t-36.5 17q-14 8 -27.5 13.5t-28.5 5.5q-13 0 -25 -4.5t-33 -25.5l-48 47q34 34 57 44.5t47 10.5q22 0 38.5 -6t36.5 -18q15 -9 27.5 -14t27.5 -5q12 0 25.5 5.5t33.5 25.5l48 -47v0z" />
    <glyph glyph-name="grave.uc" horiz-adv-x="646" 
d="M298 781l-111 162h113l75 -162h-77z" />
    <glyph glyph-name="dieresis.uc" horiz-adv-x="646" 
d="M385 786v108h92v-108h-92zM169 786v108h92v-108h-92z" />
    <glyph glyph-name="acute.uc" horiz-adv-x="646" 
d="M348 781h-77l75 162h113z" />
    <glyph glyph-name="circumflex.uc" horiz-adv-x="646" 
d="M410 781l-87 97l-87 -97h-85l129 161h86l129 -161h-85z" />
    <glyph glyph-name="caron.uc" horiz-adv-x="552" 
d="M324 781h-86l-129 161h85l87 -97l87 97h85z" />
    <glyph glyph-name="ring.uc" horiz-adv-x="500" 
d="M375 875q0 -26 -10 -48.5t-27 -39.5t-39.5 -27t-48.5 -10t-48.5 10t-39.5 27t-27 39.5t-10 48.5t10 48.5t27 39.5t39.5 27t48.5 10t48.5 -10t39.5 -27t27 -39.5t10 -48.5zM314 875q0 26 -19 44.5t-45 18.5t-45 -18.5t-19 -44.5t19 -44.5t45 -18.5t45 18.5t19 44.5z" />
    <glyph glyph-name="tilde.uc" horiz-adv-x="646" 
d="M492 846q-34 -34 -57.5 -44.5t-46.5 -10.5q-22 0 -38.5 6t-36.5 17q-14 8 -27.5 13.5t-28.5 5.5q-13 0 -25 -4.5t-33 -25.5l-48 47q34 34 57 44.5t47 10.5q22 0 38.5 -6t36.5 -18q15 -9 27.5 -14t27.5 -5q12 0 25.5 5.5t33.5 25.5l48 -47v0z" />
    <glyph glyph-name="diedot.uc" horiz-adv-x="646" 
d="M169 786v108h92v-108h-92z" />
    </font>
</defs>
</svg>
